Глаза Лоры Марс / Eyes of Laura Mars (Ирвин Кершнер / Irvin Kershner) [1978, США, триллер, DVDRip-AVC] MVO 3AVO Original Eng

DL-List and Torrent activity
Size:  1.92 GB   |    Registered:  2 years 10 months   |    Completed:  16 times
Seeders:  4  
 
   
 
 

Max Levien ®

Longevity:
2 years 10 months
Posts:
20374

[Quote] 

Глаза Лоры Марс / Eyes of Laura Mars
Страна: США
Жанр: триллер
Год выпуска: 1978
Продолжительность: 01:43:18.938
Перевод 1: Профессиональный (многоголосый закадровый)
Перевод 2: Авторский (одноголосый закадровый) Володарский
Перевод 3: Авторский (одноголосый закадровый) Васильев
Перевод 4: Авторский (одноголосый закадровый) Штейн
Субтитры: нет
Оригинальная аудиодорожка: английский
Режиссер: Ирвин Кершнер / Irvin Kershner
В ролях: Фэй Данауэй / Faye Dunaway, Томми Ли Джонс / Tommy Lee Jones, Брэд Дуриф / Brad Dourif, Рене Обержонуа / Rene Auberjonois, Рауль Хулиа / Raul Julia, Фрэнк Адонис / Frank Adonis, Лиза Тейлор / Lisa Taylor, Дарлэнн Флюгел / Darlanne Fluegel, Роуз Грегорио / Rose Gregorio, Билл Боггс / Bill Boggs
Описание: Фотографии, которые делает Лаура Марс пользуются скандальной славой в Нью-Йорке. Постановочные сценки, изображающие убийство — ее конек. Однажды странные видения начинают беспокоить Лауру: она в идит убийства своих лучших друзей, видит глазами убийцы.
Для нее, всегда «придумывающей» смерть на фотографии, самое мучительное знать, что она не может ничего изменить. Друзья погибают один за другим, но есть еще надежда на детектива Джона Невила, который, как никто, понимает Лауру и не верит в ее виновность…
Сэмпл: Скачать
Covers: Скачать
Исходник: DVD5
Качество видео: DVDRip-AVC
Формат видео: MKV
Видео: AVC; 704x464 => 844x464 (16:9); 23,976 fps; 1698 kbps; 0,217 bpp
Аудио 1: AC3 48000Hz 192kbps 2ch MVO
Аудио 2: AC3 48000Hz 192kbps 2ch Володарский
Аудио 3: AC3 48000Hz 192kbps 2ch Васильев
Аудио 4: AC3 48000Hz 192kbps 2ch Штей
Аудио 5: AC3 48000Hz 192kbps 2ch Eng (отдльным файлом)
Присутствует переключение по главам, как на исходнике

MediaInfo

Общее
Уникальный идентификатор : 211293927852142953685844814457352302992 (0x9EF5BAF3171ED7F496756CF9B5CD3190)
Полное имя : L:\_DVD\Глаза Лауры Марс (Eyes of Laura Mars)NTSC\Eyes_of_Laura_Mars\Глаза Лоры Марс (Eyes of Laura Mars)[1978, триллер, DVDRip-AVC].mkv
Формат : Matroska
Версия формата : Version 2
Размер файла : 1,78 Гбайт
Продолжительность : 1 ч. 43 м.
Общий поток : 2468 Кбит/сек
Дата кодирования : UTC 2011-11-20 10:29:17
Программа кодирования : mkvmerge v4.0.0 ('The Stars were mine') сборка от Jun 6 2010 16:18:42
Библиотека кодирования : libebml v1.0.0 + libmatroska v1.0.0
Видео
Идентификатор : 1
Формат : AVC
Формат/Информация : Advanced Video Codec
Профиль формата : [email protected]
Параметр CABAC формата : Да
Параметр ReFrames формата : 16 кадров
Идентификатор кодека : V_MPEG4/ISO/AVC
Продолжительность : 1 ч. 43 м.
Битрейт : 1698 Кбит/сек
Ширина : 704 пикселя
Высота : 464 пикселя
Соотношение сторон : 16:9
Соотношение сторон в оригинале : 3:2
Частота кадров : 23,976 кадра/сек
Цветовое пространство : YUV
Субдискретизация насыщенности : 4:2:0
Битовая глубина : 8 бит
Тип развёртки : Прогрессивная
Бит/(Пиксели*Кадры) : 0.217
Размер потока : 1,19 Гбайт (67%)
Заголовок : Eyes of Laura Mars
Библиотека кодирования : x264 core 116 r2074 2641b9e
Настройки программы : cabac=1 / ref=16 / deblock=1:-1:-1 / analyse=0x3:0x133 / me=umh / subme=10 / psy=1 / psy_rd=1.00:0.00 / mixed_ref=1 / me_range=24 / chroma_me=1 / trellis=2 / 8x8dct=1 / cqm=0 / deadzone=21,11 / fast_pskip=0 / chroma_qp_offset=-2 / threads=12 / sliced_threads=0 / nr=0 / decimate=1 / interlaced=0 / bluray_compat=0 / constrained_intra=0 / bframes=15 / b_pyramid=2 / b_adapt=2 / b_bias=0 / direct=3 / weightb=1 / open_gop=0 / weightp=2 / keyint=250 / keyint_min=23 / scenecut=40 / intra_refresh=0 / rc_lookahead=40 / rc=2pass / mbtree=1 / bitrate=1698 / ratetol=1.0 / qcomp=0.60 / qpmin=0 / qpmax=61 / qpstep=4 / cplxblur=20.0 / qblur=0.5 / vbv_maxrate=50000 / vbv_bufsize=50000 / nal_hrd=none / ip_ratio=1.40 / aq=1:1.00
Язык : English
Default : Да
Forced : Нет
Основные цвета : BT.709-5, BT.1361, IEC 61966-2-4, SMPTE RP177
Характеристики трансфера : BT.709-5, BT.1361
Коэффициенты матрицы : BT.709-5, BT.1361, IEC 61966-2-4 709, SMPTE RP177
Аудио #1
Идентификатор : 2
Формат : AC-3
Формат/Информация : Audio Coding 3
Расширение режима : CM (complete main)
Идентификатор кодека : A_AC3
Продолжительность : 1 ч. 43 м.
Вид битрейта : Постоянный
Битрейт : 192 Кбит/сек
Каналы : 2 канала
Расположение каналов : Front: L R
Частота : 48,0 КГц
Битовая глубина : 16 бит
Метод сжатия : С потерями
Размер потока : 142 Мбайт (8%)
Заголовок : AC3 2ch 192 kbps |Mvo|
Язык : Russian
Default : Нет
Forced : Нет
Аудио #2
Идентификатор : 3
Формат : AC-3
Формат/Информация : Audio Coding 3
Расширение режима : CM (complete main)
Идентификатор кодека : A_AC3
Продолжительность : 1 ч. 43 м.
Вид битрейта : Постоянный
Битрейт : 192 Кбит/сек
Каналы : 2 канала
Расположение каналов : Front: L R
Частота : 48,0 КГц
Битовая глубина : 16 бит
Метод сжатия : С потерями
Размер потока : 142 Мбайт (8%)
Заголовок : AC3 2ch 192 kbps |Володарский|
Язык : Russian
Default : Нет
Forced : Нет
Аудио #3
Идентификатор : 4
Формат : AC-3
Формат/Информация : Audio Coding 3
Расширение режима : CM (complete main)
Идентификатор кодека : A_AC3
Продолжительность : 1 ч. 43 м.
Вид битрейта : Постоянный
Битрейт : 192 Кбит/сек
Каналы : 2 канала
Расположение каналов : Front: L R
Частота : 48,0 КГц
Битовая глубина : 16 бит
Метод сжатия : С потерями
Размер потока : 142 Мбайт (8%)
Заголовок : AC3 2ch 192 kbps |Неопознанный|
Язык : Russian
Default : Нет
Forced : Нет
Аудио #4
Идентификатор : 5
Формат : AC-3
Формат/Информация : Audio Coding 3
Расширение режима : CM (complete main)
Идентификатор кодека : A_AC3
Продолжительность : 1 ч. 43 м.
Вид битрейта : Постоянный
Битрейт : 192 Кбит/сек
Каналы : 2 канала
Расположение каналов : Front: L R
Частота : 48,0 КГц
Битовая глубина : 16 бит
Метод сжатия : С потерями
Размер потока : 142 Мбайт (8%)
Заголовок : AC3 2ch 192 kbps |Штейн|
Язык : Russian
Default : Нет
Forced : Нет
Меню
00:00:00.000 : :Chapter 01
00:01:53.234 : :Chapter 02
00:03:24.935 : :Chapter 03
00:06:39.002 : :Chapter 04
00:14:50.035 : :Chapter 05
00:21:09.502 : :Chapter 06
00:28:56.635 : :Chapter 07
00:31:14.603 : :Chapter 08
00:33:32.803 : :Chapter 09
00:34:29.070 : :Chapter 10
00:39:46.070 : :Chapter 11
00:43:22.971 : :Chapter 12
00:45:21.038 : :Chapter 13
00:46:50.739 : :Chapter 14
00:53:29.139 : :Chapter 15
00:55:51.139 : :Chapter 16
00:57:36.139 : :Chapter 17
01:00:48.139 : :Chapter 18
01:06:18.873 : :Chapter 19
01:10:21.373 : :Chapter 20
01:14:19.506 : :Chapter 21
01:15:41.474 : :Chapter 22
01:16:58.507 : :Chapter 23
01:20:34.607 : :Chapter 24
01:22:32.640 : :Chapter 25
01:27:09.608 : :Chapter 26
01:31:27.608 : :Chapter 27
01:32:45.108 : :Chapter 28
01:39:59.542 : :Chapter 29

Скриншот c названием фильма

Скриншоты





Скриншоты сравнения DVD vs DVDRip-AVC

Смотреть

If your ratio falls below 0.3, you will not be able to download Torrents! More about the rating.

[erzsebet.pl].t52103.torrent
Torrent: Registered   [ 2017-12-11 02:36 ]

Download .torrent

Download

20 KB

Status: checked
Completed: 16 times
Size: 1.92 GB
terms.php

#1

11-Dec-2017 01:21

[Profile]  [PM] 
Display posts:    

You cannot post new topics in this forum
You cannot reply to topics in this forum
You cannot edit your posts in this forum
You cannot delete your posts in this forum
You cannot vote in polls in this forum
You cannot attach files in this forum
You can download files in this forum
User agreement
For copyright holders
Advertise on this site

Скачайте на халяву через торрент на трекере erzsebet.pl

!ATTENTION!
The site does not give electronic versions of products, and is engaged only in a collecting and cataloguing of the references sent and published at a forum by our readers. If you are the legal owner of any submitted material and do not wish that the reference to it was in our catalogue, contact us and we shall immediately remove her. Files for an exchange on tracker are given by users of a site, and the administration does not bear the responsibility for their maintenance. The request to not fill in the files protected by copyrights, and also files of the illegal maintenance!