Легкие деньги / Easy Money (Джеймс Синьорелли / James Signorelli) [1983, США, комедия, TVRip-AVC] [Fullscreen] DVO (НТВ)

DL-List and Torrent activity
Size:  2.55 GB   |    Registered:  2 years 10 months   |    Completed:  16 times
Seeders:  3  
 
   
 
 

Max Levien ®

Longevity:
2 years 10 months
Posts:
20374

[Quote] 

Легкие деньги / Easy Money / Fullscreen
Страна: США
Жанр: комедия
Год выпуска: 1983
Продолжительность: 01:27:12
Перевод: Профессиональный (двухголосый закадровый) НТВ
Субтитры: нет
Оригинальная аудиодорожка: нет
Режиссер: Джеймс Синьорелли / James Signorelli
В ролях: Родни Дейнджерфилд, Джо Пеши, Джеральдин Фицджералд, Кэндис Аззара, Вэл Эйвери, Том Нунен, Тейлор Негрон, Лили Хейден, Джеффри Джонс, Том Юэлл, Дженнифер Джейсон Ли...
Описание: Нет такой дурной привычки, которой не был бы подвержен Монти Капулетти. Он много выпивает, много курит, играет в азартные игры и волочится за женщинами, при этом не без успеха играя роль добропорядочного семьянина. Монти вполне доволен столь бурной жизнью. Но вот приходит известие, что его богатая теща погибла в авиакатастрофе.
Монти и его семья должны унаследовать более 10 миллионов долларов и шикарный магазин в Манхэттене — но при условии, что в течении года он не будет употреблять спиртного, курить, играть и иметь отношения с женщинами на стороне, а впридачу должен сбросить избыточный вес. Что лучше — продолжать наслаждаться жизнью или ценой годичных мук обрести богатство?
Подбадриваемый семьей и искушаемый друзьями, Монти все же выдерживает год и узнает, что его теща и не думала погибать, а просто испытывала своего беспутного зятя.
Доп. информация:
Оцифровка звука с VHS с записью эфира красноярского 22 дециметрового канала, по которому с 1995 года местная телекомпания "Афонтово" транслировала НТВ.
Из собственной коллекции.
Запись сделана в период с 01.09.1996 по 04.09.1998, к сожалению в LP, со всеми вытекающими...
Fullscreen.
Сэмпл: http://sendfile.su/1310569
Качество видео: TVRip-AVC
Формат видео: MP4
Видео: AVC, 720х576, 5:4, 50,000 кадров/сек, 4000 Кбит/сек
Аудио: AAC, 48,0 КГц, 192 Кбит/сек, 2 канала (псевдостерео)

MediaInfo

Общее
Полное имя : K:\torrents\Easy Money\Easy Money.mp4
Формат : MPEG-4
Профиль формата : Base Media
Идентификатор кодека : isom (isom)
Размер файла : 2,55 Гбайт
Продолжительность : 1 ч. 27 м.
Режим общего битрейта : Переменный
Общий поток : 4195 Кбит/сек
Дата кодирования : UTC 2017-02-19 14:20:41
Дата пометки : UTC 2017-02-19 14:20:41
Видео
Идентификатор : 2
Формат : AVC
Формат/Информация : Advanced Video Codec
Профиль формата : [email protected]
Параметр CABAC формата : Нет
Параметр ReFrames формата : 1 кадр
Параметр GOP формата : M=1, N=100
Идентификатор кодека : avc1
Идентификатор кодека/Информация : Advanced Video Coding
Продолжительность : 1 ч. 27 м.
Битрейт : 4000 Кбит/сек
Максимальный битрейт : 4401 Кбит/сек
Ширина : 720 пикселей
Высота : 576 пикселей
Соотношение сторон : 5:4
Режим частоты кадров : Постоянный
Частота кадров : 50,000 кадров/сек
Цветовое пространство : YUV
Субдискретизация насыщенности : 4:2:0
Битовая глубина : 8 бит
Тип развёртки : Прогрессивная
Бит/(Пиксели*Кадры) : 0.193
Размер потока : 2,44 Гбайт (95%)
Дата пометки : UTC 2017-02-19 14:23:37
Аудио
Идентификатор : 1
Формат : AAC
Формат/Информация : Advanced Audio Codec
Профиль формата : LC
Идентификатор кодека : 40
Продолжительность : 1 ч. 27 м.
Вид битрейта : Переменный
Битрейт : 192 Кбит/сек
Максимальный битрейт : 197 Кбит/сек
Каналы : 2 канала
Расположение каналов : Front: L R
Частота : 48,0 КГц
Частота кадров : 46,875 кадров/сек (1024 spf)
Метод сжатия : С потерями
Размер потока : 118 Мбайт (5%)
Default : Да
Alternate group : 1
Дата пометки : UTC 2017-02-19 14:23:37

Скриншот c названием фильма

If your ratio falls below 0.3, you will not be able to download Torrents! More about the rating.

[erzsebet.pl].t52108.torrent
Torrent: Registered   [ 2017-12-11 02:36 ]

Download .torrent

Download

13 KB

Status: checked
Completed: 16 times
Size: 2.55 GB
terms.php

#1

11-Dec-2017 01:21

[Profile]  [PM] 
Display posts:    

You cannot post new topics in this forum
You cannot reply to topics in this forum
You cannot edit your posts in this forum
You cannot delete your posts in this forum
You cannot vote in polls in this forum
You cannot attach files in this forum
You can download files in this forum
User agreement
For copyright holders
Advertise on this site

Скачайте на халяву через торрент на трекере erzsebet.pl

!ATTENTION!
The site does not give electronic versions of products, and is engaged only in a collecting and cataloguing of the references sent and published at a forum by our readers. If you are the legal owner of any submitted material and do not wish that the reference to it was in our catalogue, contact us and we shall immediately remove her. Files for an exchange on tracker are given by users of a site, and the administration does not bear the responsibility for their maintenance. The request to not fill in the files protected by copyrights, and also files of the illegal maintenance!