Мисс "45 калибр" / Ангел мщения / Ms .45 / Angel of Vengeance (Абель Феррара / Abel Ferrara) [1981, США, триллер, драма, криминал, BDRip] MVO (ТК Россия) + AVO (Кузнецов)

DL-List and Torrent activity
Size:  1.41 GB   |    Registered:  2 years 10 months   |    Completed:  16 times
Seeders:  2  
 
   
 
 

Max Levien ®

Longevity:
2 years 10 months
Posts:
20374

[Quote] 

Мисс "45 калибр" / Ангел мщения / Ms .45 / Angel of Vengeance
Страна: США
Жанр: триллер, драма, криминал
Год выпуска: 1981
Продолжительность: 01:20:51
Перевод: Профессиональный (многоголосый закадровый) ТК Россия
Перевод 2: Авторский (одноголосый закадровый) Кузнецов
Субтитры: нет
Режиссер: Абель Феррара / Abel Ferrara
В ролях: Зои Ланд, Альбер Зинкис, Хелен МакГара, Дарлин Стато, Абель Феррара, Найк Закманоглу, Джэйн Кеннеди, Джерри Игараси, Майкл Минард, Бонни Уильямс, Джек Тибо, Эвелин Смит, Николас Сент-Джон, Стив Дэш, Джо Перс
Описание: Главная героиня картины по имени Тана, красивая и немая девушка из Нью-Йорка, становится жертвой нападения. Однажды, когда она возвращалась домой с работы, ее жестоко изнасиловал незнакомец в маске (его роль исполнил сам режиссер ленты, Абель Феррара). И дикий кошмар на этом не закончился: едва оправившись от шока и добравшись до дома, девушка подвергается изнасилованию во второй раз. Но на этот раз обидчик не ушел от расплаты: Тана прикончила мерзавца, размозжив ему голову утюгом! Почувствовав вкус к убийству и вооружившись пистолетом 45-го калибра, героиня пускается в зловещий, кровавый рейд отмщения мужчинам, безжалостно истребляя всех несчастных представителей сильного пола, обративших на нее свое внимание!
Доп. информация: Релиз
Качество видео: BDRip [Ms.45.1981.US.BDRemux.1080p.HDTracker]
Формат видео: AVI
Видео: 720x400 (1.80:1), 23.976 fps, XviD build 50 ~2099 kbps avg, 0.30 bit/pixel
Аудио: 48 kHz, AC3 Dolby Digital, 2/0 (L,R) ch, ~192 kbps MVO
Аудио 2: 48 kHz, AC3 Dolby Digital, 2/0 (L,R) ch, ~192 kbps AVO

MediaInfo

Ангел мщения - Angel of Vengeance [by Edich2].avi
Format : AVI
Format/Info : Audio Video Interleave
File size : 1.41 GiB
Duration : 1h 20mn
Overall bit rate : 2 498 Kbps
Movie name : Ангел мщения - Angel of Vengeance [by Edich2]
Director : Rip by Edich2
Writing application : VirtualDubMod 1.5.10.2 (build 2540/release)
Comment : erzsebet.org
Video
ID : 0
Format : MPEG-4 Visual
Format profile : Advanced [email protected]
Format settings, BVOP : 2
Format settings, QPel : No
Format settings, GMC : No warppoints
Format settings, Matrix : Custom
Codec ID : XVID
Codec ID/Hint : XviD
Duration : 1h 20mn
Bit rate : 2 100 Kbps
Width : 720 pixels
Height : 400 pixels
Display aspect ratio : 16:9
Frame rate : 23.976 fps
Color space : YUV
Chroma subsampling : 4:2:0
Bit depth : 8 bits
Scan type : Progressive
Compression mode : Lossy
Bits/(Pixel*Frame) : 0.304
Stream size : 1.19 GiB (84%)
Writing library : XviD 1.2.1 (UTC 2008-12-04)
Audio #1
ID : 1
Format : AC-3
Format/Info : Audio Coding 3
Mode extension : CM (complete main)
Format settings, Endianness : Big
Codec ID : 2000
Duration : 1h 20mn
Bit rate mode : Constant
Bit rate : 192 Kbps
Channel count : 2 channels
Channel positions : Front: L R
Sampling rate : 48.0 KHz
Bit depth : 16 bits
Compression mode : Lossy
Stream size : 111 MiB (8%)
Alignment : Split accross interleaves
Interleave, duration : 42 ms (1.00 video frame)
Interleave, preload duration : 500 ms
Audio #2
ID : 2
Format : AC-3
Format/Info : Audio Coding 3
Mode extension : CM (complete main)
Format settings, Endianness : Big
Codec ID : 2000
Duration : 1h 20mn
Bit rate mode : Constant
Bit rate : 192 Kbps
Channel count : 2 channels
Channel positions : Front: L R
Sampling rate : 48.0 KHz
Bit depth : 16 bits
Compression mode : Lossy
Stream size : 111 MiB (8%)
Alignment : Split accross interleaves
Interleave, duration : 42 ms (1.00 video frame)
Interleave, preload duration : 500 ms

Скриншоты


If your ratio falls below 0.3, you will not be able to download Torrents! More about the rating.

[erzsebet.pl].t52121.torrent
Torrent: Registered   [ 2017-12-11 02:36 ]

Download .torrent

Download

15 KB

Status: checked
Completed: 16 times
Size: 1.41 GB
terms.php

#1

11-Dec-2017 01:20

[Profile]  [PM] 
Display posts:    

You cannot post new topics in this forum
You cannot reply to topics in this forum
You cannot edit your posts in this forum
You cannot delete your posts in this forum
You cannot vote in polls in this forum
You cannot attach files in this forum
You can download files in this forum
User agreement
For copyright holders
Advertise on this site

Скачайте на халяву через торрент на трекере erzsebet.pl

!ATTENTION!
The site does not give electronic versions of products, and is engaged only in a collecting and cataloguing of the references sent and published at a forum by our readers. If you are the legal owner of any submitted material and do not wish that the reference to it was in our catalogue, contact us and we shall immediately remove her. Files for an exchange on tracker are given by users of a site, and the administration does not bear the responsibility for their maintenance. The request to not fill in the files protected by copyrights, and also files of the illegal maintenance!