Лето у моря / Два брата и сестра / Geschwister (Вольфганг Хюбнер / Wolfgang Hübner) [1975, ГДР, семейный, DVDRip] VO (Юрий Муравский) + Original Ger

DL-List and Torrent activity
Size:  1.36 GB   |    Registered:  2 years 10 months   |    Completed:  16 times
Seeders:  2  
 
   
 
 

Max Levien ®

Longevity:
2 years 10 months
Posts:
20374

[Quote] 

Лето у моря / Два брата и сестра / Geschwister
Страна: ГДР
Жанр: семейный
Год выпуска: 1975
Продолжительность: 01:15:18
Перевод: Одноголосый закадровый (Юрий Муравский)
Субтитры: нет
Оригинальная аудиодорожка: немецкий
Режиссер: Вольфганг Хюбнер / Wolfgang Hübner
В ролях: Мариям Агишева / Marijam Agischewa, Штефан Науйокат / Stefan Naujokat, Берт Пауль / Bert Paul, Вальфриде Шмитт / Walfriede Schmitt, Дитмар Рихтер-Райник / Dietmar Richter-Reinick, Карола Браунбок / Carola Braunbock, Ханнелор Эрл / Hannelore Erle, Анжелика Херрманн / Angelika Herrmann, Ганс Клеринг / Hans Klering, Ингеборг Краббе / Ingeborg Krabbe
Описание: Мама 12-летнего мальчика и 16-летней девочки собирается вторично выйти замуж. Дети очень любят будущего отчима, но у него тоже есть 7-летний сын, живущий в деревне у моря с бабушкой и дедушкой. Они решают, что быть или не быть будущему браку будет зависеть от того, понравятся ли дети друг другу…
Доп. информация: http://www.imdb.com/title/tt0072503/
Перевод - Юрий Муравский (2013)
Сведение звука - Diablo
Сэмпл: http://multi-up.com/1149028
Качество видео: DVDRip
Формат видео: AVI
Видео: XviD, 720x544 (4:3), 25.000 fps, 2201 kbps
Аудио: AC3, 48000 Hz, 2 ch, 192 kbps (русский)
Аудио 2: AC3, 48000 Hz, 2 ch, 192 kbps (немецкий)

MediaInfo

General
Complete name : F:\Рутрекер\Два брата и сестра\Geschwister (1975).avi
Format : AVI
Format/Info : Audio Video Interleave
File size : 1.36 GiB
Duration : 1h 15mn
Overall bit rate : 2 594 Kbps
Writing application : VirtualDubMod 1.5.4.1 (build 2178/release)
Writing library : VirtualDubMod build 2178/release
Video
ID : 0
Format : MPEG-4 Visual
Format profile : Advanced [email protected]
Format settings, BVOP : 1
Format settings, QPel : No
Format settings, GMC : No warppoints
Format settings, Matrix : Custom
Codec ID : XVID
Codec ID/Hint : XviD
Duration : 1h 15mn
Bit rate : 2 201 Kbps
Width : 720 pixels
Height : 544 pixels
Display aspect ratio : 4:3
Frame rate : 25.000 fps
Color space : YUV
Chroma subsampling : 4:2:0
Bit depth : 8 bits
Scan type : Progressive
Compression mode : Lossy
Bits/(Pixel*Frame) : 0.225
Stream size : 1.16 GiB (85%)
Writing library : XviD 1.2.1 (UTC 2008-12-04)
Audio #1
ID : 1
Format : AC-3
Format/Info : Audio Coding 3
Mode extension : CM (complete main)
Format settings, Endianness : Big
Codec ID : 2000
Duration : 1h 15mn
Bit rate mode : Constant
Bit rate : 192 Kbps
Channel(s) : 2 channels
Channel positions : Front: L R
Sampling rate : 48.0 KHz
Bit depth : 16 bits
Compression mode : Lossy
Stream size : 103 MiB (7%)
Alignment : Split accross interleaves
Interleave, duration : 96 ms (2.40 video frames)
Interleave, preload duration : 96 ms
Language : Russian
Audio #2
ID : 2
Format : AC-3
Format/Info : Audio Coding 3
Mode extension : CM (complete main)
Format settings, Endianness : Big
Codec ID : 2000
Duration : 1h 15mn
Bit rate mode : Constant
Bit rate : 192 Kbps
Channel(s) : 2 channels
Channel positions : Front: L R
Sampling rate : 48.0 KHz
Bit depth : 16 bits
Compression mode : Lossy
Stream size : 103 MiB (7%)
Alignment : Split accross interleaves
Interleave, duration : 96 ms (2.40 video frames)
Interleave, preload duration : 96 ms
Language : Deutsch

Скриншот c названием фильма

If your ratio falls below 0.3, you will not be able to download Torrents! More about the rating.

[erzsebet.pl].t52125.torrent
Torrent: Registered   [ 2017-12-11 02:36 ]

Download .torrent

Download

14 KB

Status: checked
Completed: 16 times
Size: 1.36 GB
terms.php

#1

11-Dec-2017 01:20

[Profile]  [PM] 
Display posts:    

You cannot post new topics in this forum
You cannot reply to topics in this forum
You cannot edit your posts in this forum
You cannot delete your posts in this forum
You cannot vote in polls in this forum
You cannot attach files in this forum
You can download files in this forum
User agreement
For copyright holders
Advertise on this site

Скачайте на халяву через торрент на трекере erzsebet.pl

!ATTENTION!
The site does not give electronic versions of products, and is engaged only in a collecting and cataloguing of the references sent and published at a forum by our readers. If you are the legal owner of any submitted material and do not wish that the reference to it was in our catalogue, contact us and we shall immediately remove her. Files for an exchange on tracker are given by users of a site, and the administration does not bear the responsibility for their maintenance. The request to not fill in the files protected by copyrights, and also files of the illegal maintenance!