Ужасный барон / El barón del terror / The Brainiac (Chano Urueta / Чано Уруэта) [1962, Мексика, ужасы, мистика, триллер, DVDRip] VO (SATKUR) + Original Spa

DL-List and Torrent activity
Size:  878 MB   |    Registered:  2 years 10 months   |    Completed:  16 times
Seeders:  3  
 
   
 
 

Max Levien ®

Longevity:
2 years 10 months
Posts:
20374

[Quote] 

Ужасный барон / El barón del terror / The Brainiac
Страна: Мексика
Жанр: ужасы, мистика, триллер
Год выпуска: 1962
Продолжительность: 01:16:51
Перевод: Одноголосый закадровый SATKUR
Субтитры: нет
Оригинальная аудиодорожка: испанский
Режиссер: Chano Urueta / Чано Уруэта
В ролях: Абель Салазар, Ариадна Вельтер, Давид Сильва, Герман Роблз, Луис Арагон, Маурицио Гарсес, Офелиа Гильмаин, Рене Кардона, Рубен Рохо, Карлос Ньето
Описание: В 1661 году мексиканский барон, - Вителиус де Эстера, приговорен инквизицией к сожжению заживо за колдовство, некромантию и другие преступления. Перед смертью, во время которой над небом пролетает комета, барон накладывает на потомков судей проклятие, грозя им страшной местью. Проходит триста лет. И вот, профессор астрономии Сатурнино Мильян со своими помощниками, наблюдают, как на Землю, в районе Мексики, падает обломок кометы, предсказанной бароном ещё три века назад, правда больше никто из астрономов и обсерваторий Земли этого не замечает. Люди науки не могли себе даже представить, что барон Вителиус де Эстера уже начинает претворять в жизни свои обещания, данные им ещё триста лет назад…
Доп. информация: Озвучено по субтитрам +MarfenaRus+
Семпл: http://multi-up.com/948742
Качество видео: DVDRip
Формат видео: AVI
Видео: 640x480 (4:3), 25,000 fps, XviD build ~1199 kbps avg, 0.156 bit/pixel
Аудио 1: AC3, 48.0 KHz, 2 ch, 192 Kbps, CBR - русский одноголосый
Аудио 2: AC3, 48.0 KHz, 2 ch, 192 Kbps, CBR - оригинальный испанский

MediaInfo

Общее
Полное имя : D:\FILM\F-2014\Disk-23\El.Baron.del.Terror.1962.Spa.[vo.satkur+spa].AC3.Rus\El.Baron.del.Terror.1962.Spa.[vo.satkur+spa].AC3.Rus.avi
Формат : AVI
Формат/Информация : Audio Video Interleave
Размер файла : 878 Мбайт
Продолжительность : 1 ч. 16 м.
Общий поток : 1598 Кбит/сек
Программа кодирования : VirtualDubModRus 1.5.10.2 (build 2542/release)
Библиотека кодирования : VirtualDubMod build 2542/release
Видео
Идентификатор : 0
Формат : MPEG-4 Visual
Профиль формата : Advanced [email protected]
Параметр BVOP формата : 1
Параметр QPel формата : Нет
Параметр GMC формата : Без точки перехода
Параметр матрицы формата : Default (H.263)
Идентификатор кодека : XVID
Идентификатор кодека/Подсказка : XviD
Продолжительность : 1 ч. 16 м.
Битрейт : 1199 Кбит/сек
Ширина : 640 пикселей
Высота : 480 пикселей
Соотношение сторон : 4:3
Частота кадров : 25,000 кадров/сек
Цветовое пространство : YUV
Субдискретизация насыщенности : 4:2:0
Битовая глубина : 8 бит
Тип развёртки : Прогрессивная
Метод сжатия : С потерями
Бит/(Пиксели*Кадры) : 0.156
Размер потока : 659 Мбайт (75%)
Библиотека кодирования : XviD 1.2.0.dev47 (UTC 2006-11-01)
Аудио #1
Идентификатор : 1
Формат : AC-3
Формат/Информация : Audio Coding 3
Расширение режима : CM (complete main)
Параметр Endianness формата : Big
Идентификатор кодека : 2000
Продолжительность : 1 ч. 16 м.
Вид битрейта : Постоянный
Битрейт : 192 Кбит/сек
Каналы : 2 канала
Расположение каналов : Front: L R
Частота : 48,0 КГц
Битовая глубина : 16 бит
Метод сжатия : С потерями
Размер потока : 106 Мбайт (12%)
Выравнивание : Разделение по промежуткам
Продолжительность промежутка : 40 мс. (1,00 видеокадр)
Время предзагрузки промежутка : 500 мс.
Аудио #2
Идентификатор : 2
Формат : AC-3
Формат/Информация : Audio Coding 3
Расширение режима : CM (complete main)
Параметр Endianness формата : Big
Идентификатор кодека : 2000
Продолжительность : 1 ч. 16 м.
Вид битрейта : Постоянный
Битрейт : 192 Кбит/сек
Каналы : 2 канала
Расположение каналов : Front: L R
Частота : 48,0 КГц
Битовая глубина : 16 бит
Метод сжатия : С потерями
Размер потока : 106 Мбайт (12%)
Выравнивание : Разделение по промежуткам
Продолжительность промежутка : 40 мс. (1,00 видеокадр)
Время предзагрузки промежутка : 500 мс.

Скриншот c названием фильма

If your ratio falls below 0.3, you will not be able to download Torrents! More about the rating.

[erzsebet.pl].t52126.torrent
Torrent: Registered   [ 2017-12-11 02:36 ]

Download .torrent

Download

18 KB

Status: checked
Completed: 16 times
Size: 878 MB
terms.php

#1

11-Dec-2017 01:20

[Profile]  [PM] 
Display posts:    

You cannot post new topics in this forum
You cannot reply to topics in this forum
You cannot edit your posts in this forum
You cannot delete your posts in this forum
You cannot vote in polls in this forum
You cannot attach files in this forum
You can download files in this forum
User agreement
For copyright holders
Advertise on this site

Скачайте на халяву через торрент на трекере erzsebet.pl

!ATTENTION!
The site does not give electronic versions of products, and is engaged only in a collecting and cataloguing of the references sent and published at a forum by our readers. If you are the legal owner of any submitted material and do not wish that the reference to it was in our catalogue, contact us and we shall immediately remove her. Files for an exchange on tracker are given by users of a site, and the administration does not bear the responsibility for their maintenance. The request to not fill in the files protected by copyrights, and also files of the illegal maintenance!