Ангелы 3 / Angels 3 / Tian shi xing dong III mo nu mo ri (Стэнли Тонг / Stanley Tong, Тереза Ву / Teresa Woo ) [1989, Гонконг, боевик, боевые искусства, DVDRip] VO

DL-List and Torrent activity
Size:  1.37 GB   |    Registered:  2 years 10 months   |    Completed:  16 times
Seeders:  2  
 
   
 
 

Max Levien ®

Longevity:
2 years 10 months
Posts:
20374

[Quote] 

Ангелы 3 / Железные ангелы 3 / Возвращение железных ангеловAngels 3 / Iron Angels 3 / Return Of Iron Angels / Tian shi xing dong III mo nu mo ri
Год выпуска: 1989
Страна: Гонконг
Жанр: боевик, боевые искусства
Продолжительность: 01:31:26
Перевод: Одноголосый закадровый Виктор Береговых (Jet)
Режиссер: Стэнли Тонг / Stanley Tong, Тереза Ву / Teresa Woo
В ролях: Мун Ли, Алекс Фонг, Ральф Чен, Карина Иса, Марко Ло, Марк Штайнборн, Кэти Хикман...
Описание: Во время всеобщего экономического роста, Таиланд становится базой терроризма в Азии. На его территории уничтожаются высокопоставленные чиновники из соседних стран, между странами портятся дипломатические отношения. Поступает информация, что кто-то нанял группу международных террористов для наведения беспорядков в Таиланде, двое наемных убийц из Америки и Японии запланировали серию терактов. Ни остается ничего другого, как вновь призвать на помощь группу "Железные ангелы"...
Сэмпл: http://multi-up.com/737063
Рип от
Качество видео: DVDRip
Формат файла: AVI
Видео: 720x400, 25.000 fps, XviD MPEG-4, 2002 kbps, 0.23 bit/pixel
Аудио: 48 kHz, MP3, 2 ch, 128 kbps [Russian]

MediaInfo

General
Format : AVI
Format/Info : Audio Video Interleave
File size : 1.37 GiB
Duration : 1h 31mn
Overall bit rate : 2 140 Kbps
Video
ID : 0
Format : MPEG-4 Visual
Format settings, BVOP : Yes
Format settings, QPel : No
Format settings, GMC : No warppoints
Format settings, Matrix : Default (H.263)
Muxing mode : Packed bitstream
Codec ID : DX50
Codec ID/Hint : DivX 5
Duration : 1h 31mn
Bit rate : 2 002 Kbps
Width : 720 pixels
Height : 400 pixels
Display aspect ratio : 16:9
Frame rate : 25.000 fps
Color space : YUV
Chroma subsampling : 4:2:0
Bit depth : 8 bits
Scan type : Progressive
Bits/(Pixel*Frame) : 0.278
Stream size : 1.28 GiB (94%)
Title : Video
Writing library : DivX 6.6.1.4
Audio
ID : 1
Format : MPEG Audio
Format version : Version 1
Format profile : Layer 3
Codec ID : 55
Codec ID/Hint : MP3
Duration : 1h 31mn
Bit rate mode : Constant
Bit rate : 128 Kbps
Channel(s) : 2 channels
Sampling rate : 48.0 KHz
Stream size : 83.7 MiB (6%)
Alignment : Split accross interleaves
Interleave, duration : 40 ms (1.00 video frame)
Interleave, preload duration : 500 ms
Title : Audio

Обложки DVD

Скриншот c названием фильма

If your ratio falls below 0.3, you will not be able to download Torrents! More about the rating.

[erzsebet.pl].t52135.torrent
Torrent: Registered   [ 2017-12-11 02:36 ]

Download .torrent

Download

14 KB

Status: checked
Completed: 16 times
Size: 1.37 GB
terms.php

#1

11-Dec-2017 01:20

[Profile]  [PM] 
Display posts:    

You cannot post new topics in this forum
You cannot reply to topics in this forum
You cannot edit your posts in this forum
You cannot delete your posts in this forum
You cannot vote in polls in this forum
You cannot attach files in this forum
You can download files in this forum
User agreement
For copyright holders
Advertise on this site

Скачайте на халяву через торрент на трекере erzsebet.pl

!ATTENTION!
The site does not give electronic versions of products, and is engaged only in a collecting and cataloguing of the references sent and published at a forum by our readers. If you are the legal owner of any submitted material and do not wish that the reference to it was in our catalogue, contact us and we shall immediately remove her. Files for an exchange on tracker are given by users of a site, and the administration does not bear the responsibility for their maintenance. The request to not fill in the files protected by copyrights, and also files of the illegal maintenance!