Вступая в контакт / Making Contact / Joey (Роланд Эммерих / Roland Emmerich) [1985, Германия, США, ужасы, фантастика, фэнтези, боевик, BDRip] MVO

DL-List and Torrent activity
Size:  1.45 GB   |    Registered:  2 years 10 months   |    Completed:  16 times
Seeders:  3  
 
   
 
 

Max Levien ®

Longevity:
2 years 10 months
Posts:
20374

[Quote] 

Вступая в контакт
Making Contact / Joey
-Страна: Германия, США
Жанр: ужасы, фантастика, фэнтези, боевик
Год выпуска: 1985
Продолжительность: 01:37:55-Перевод: Профессиональный (многоголосый закадровый)
Субтитры: нет
Режиссер: Роланд Эммерих / Roland Emmerich-В ролях: Джошуа Морелл, Ева Крыль, Тэмми Шилдс, Ян Зиролд, Барбара Клейн, Джерри Холл, Шон Джонсон, Матиас Краус, Рэй Каселонис, Кристин Геббельс-Описание: Подросток Джоуи тяжело переживал смерть отца. Однажды вечером, когда все игрушки в комнате Джоуи сами собой задвигались, загудели, завертелись, запрыгали, мальчик понял, что дух отца сообщает ему о своем существовании. Поэтому Джоуи нисколько не удивился, услышав в трубке игрушечного телефона такой родной и такой знакомый голос. Но мальчик не знал, что потусторонние силы, дав знать о себе, гораздо чаще являются носителями Зла, нежели стремятся помочь человеку…-Релиз от:
Автор рипа: yaroslaigor- -Качество видео: BDRip (источник: arxivariys / Blu-Ray Remux / 1080р)
Формат видео: AVI-Видео: 720x304 (2.37:1), 24 fps, XviD build 65 ~1921 kbps avg, 0.37 bit/pixel
Аудио: 48 kHz, AC3 Dolby Digital, 2/0 (L,R) ch, ~192 kbps avg (RUS)

MediaInfo

Общее
Полное имя : C:\Users\к\Desktop\фильмы\Vstupaya.v.kontakt.1985.RUS.BDRip.XviD.AC3.avi
Формат : AVI
Формат/Информация : Audio Video Interleave
Размер файла : 1,45 Гбайт
Продолжительность : 1 ч. 37 м.
Общий поток : 2123 Кбит/сек
Название фильма : Вступая в контакт / Making Contact / Joey (1985) BDRip
Режиссёр : yaroslaigor
Жанр : ужасы, фантастика, фэнтези
Программа кодирования : VirtualDubMod 1.5.10.2 (build 2542/release)
Примечание : 20.10.2013
Видео
Идентификатор : 0
Формат : MPEG-4 Visual
Профиль формата : Advanced [email protected]
Параметр BVOP формата : 1
Параметр QPel формата : Нет
Параметр GMC формата : Без точки перехода
Параметр матрицы формата : Выборочная
Идентификатор кодека : XVID
Идентификатор кодека/Подсказка : XviD
Продолжительность : 1 ч. 37 м.
Битрейт : 1922 Кбит/сек
Ширина : 720 пикселей
Высота : 304 пикселя
Соотношение сторон : 2,35:1
Частота кадров : 24,000 кадра/сек
Цветовое пространство : YUV
Субдискретизация насыщенности : 4:2:0
Битовая глубина : 8 бит
Тип развёртки : Прогрессивная
Метод сжатия : С потерями
Бит/(Пиксели*Кадры) : 0.366
Размер потока : 1,31 Гбайт (91%)
Библиотека кодирования : XviD 65
Аудио
Идентификатор : 1
Формат : AC-3
Формат/Информация : Audio Coding 3
Расширение режима : CM (complete main)
Параметр Endianness формата : Big
Идентификатор кодека : 2000
Продолжительность : 1 ч. 37 м.
Вид битрейта : Постоянный
Битрейт : 192 Кбит/сек
Каналы : 2 канала
Расположение каналов : Front: L R
Частота : 48,0 КГц
Битовая глубина : 16 бит
Метод сжатия : С потерями
Размер потока : 134 Мбайт (9%)
Выравнивание : Разделение по промежуткам
Продолжительность промежутка : 42 мс. (1,00 видеокадр)
Время предзагрузки промежутка : 500 мс.

Скриншот c названием фильма

Скриншоты

If your ratio falls below 0.3, you will not be able to download Torrents! More about the rating.

[erzsebet.pl].t52140.torrent
Torrent: Registered   [ 2017-12-11 02:36 ]

Download .torrent

Download

15 KB

Status: checked
Completed: 16 times
Size: 1.45 GB
terms.php

#1

11-Dec-2017 01:20

[Profile]  [PM] 
Display posts:    

You cannot post new topics in this forum
You cannot reply to topics in this forum
You cannot edit your posts in this forum
You cannot delete your posts in this forum
You cannot vote in polls in this forum
You cannot attach files in this forum
You can download files in this forum
User agreement
For copyright holders
Advertise on this site

Скачайте на халяву через торрент на трекере erzsebet.pl

!ATTENTION!
The site does not give electronic versions of products, and is engaged only in a collecting and cataloguing of the references sent and published at a forum by our readers. If you are the legal owner of any submitted material and do not wish that the reference to it was in our catalogue, contact us and we shall immediately remove her. Files for an exchange on tracker are given by users of a site, and the administration does not bear the responsibility for their maintenance. The request to not fill in the files protected by copyrights, and also files of the illegal maintenance!