Бамбуковые боги и стальные бойцы / Bamboo Gods and Iron Men (Сизар Галлардо / Cesar Gallardo) [1974, Филиппины, США, боевик, драма, криминал, DVDRip] VO (Алексей Багичев)

DL-List and Torrent activity
Size:  745 MB   |    Registered:  2 years 10 months   |    Completed:  16 times
Seeders:  2  
 
   
 
 

Max Levien ®

Longevity:
2 years 10 months
Posts:
20374

[Quote] 

Бамбуковые боги и стальные бойцы / Bamboo Gods and Iron Men
Страна: Филиппины, США
Жанр: боевик, драма, криминал
Год выпуска: 1974
Продолжительность: 01:35:48
Перевод: Одноголосый закадровый (Алексей Багичев)
Субтитры: нет
Режиссер: Сизар Галлардо / Cesar Gallardo
В ролях: Джеймс Инглехарт, Ширли Вашингтон, Чикито, Марисса Дельгадо, Эдди Гарсиа
Описание: Медовый месяц четы Джефферсонов в Гонконге омрачен появлением нескольких бандитов, желающих украсть статуэтку Будды, которую новоиспеченный муж предлагал жене, в тот день когда они ходили по магазинам. И когда ситуация становится взрывоопасной их спасает лишь то, что Кэл Джефферсон - лучший американский боксер. Сам того не ведая, он становится пешкой в игре, целью которой становится обнаружение древней тайной формулы.
Сэмпл: http://multi-up.com/1107254
Качество видео: DVDRip (Исходник - DVD Video)
Формат видео: AVI
Видео: XviD, 720x400, (16:9), 23,976 fps, 940 Кбит/с, 8 бит
Аудио: Русский (MP3, 2 ch, 48,0 KHz, 128 Kbps)

MediaInfo

Общее
Полное имя : F:\Видеофильмы\В и д е о\Бамбуковые боги и стальные бойцы (боевик, драма, криминал 1974г).avi
Формат : AVI
Формат/Информация : Audio Video Interleave
Размер файла : 745 Мбайт
Продолжительность : 1 ч. 35 м.
Общий поток : 1087 Кбит/сек
Программа кодирования : VirtualDubMod 1.5.10.2 (build 2540/release)
Библиотека кодирования : VirtualDubMod build 2540/release
Видео
Идентификатор : 0
Формат : MPEG-4 Visual
Профиль формата : Advanced [email protected]
Параметр BVOP формата : 1
Параметр QPel формата : Нет
Параметр GMC формата : Без точки перехода
Параметр матрицы формата : Выборочная
Идентификатор кодека : XVID
Идентификатор кодека/Подсказка : XviD
Продолжительность : 1 ч. 35 м.
Битрейт : 949 Кбит/сек
Ширина : 720 пикселей
Высота : 400 пикселей
Соотношение сторон : 16:9
Частота кадров : 23,976 (23976/1000) кадра/сек
Цветовое пространство : YUV
Субдискретизация насыщенности : 4:2:0
Битовая глубина : 8 бит
Тип развёртки : Прогрессивная
Метод сжатия : С потерями
Бит/(Пиксели*Кадры) : 0.137
Размер потока : 651 Мбайт (87%)
Библиотека кодирования : XviD 1.2.0.dev47 (UTC 2006-11-01)
Аудио
Идентификатор : 1
Формат : MPEG Audio
Версия формата : Version 1
Профиль формата : Layer 3
Идентификатор кодека : 55
Идентификатор кодека/Подсказка : MP3
Продолжительность : 1 ч. 35 м.
Вид битрейта : Постоянный
Битрейт : 128 Кбит/сек
Каналы : 2 канала
Частота : 48,0 КГц
Метод сжатия : С потерями
Размер потока : 87,8 Мбайт (12%)
Выравнивание : Соединение по промежуткам
Продолжительность промежутка : 42 мс. (1,00 видеокадр)
Время предзагрузки промежутка : 504 мс.
Библиотека кодирования : LAME3.97
Настройки программы : -m s -V 4 -q 2 -lowpass 17 -b 128

Скриншот c названием фильма

Скриншоты

If your ratio falls below 0.3, you will not be able to download Torrents! More about the rating.

[erzsebet.pl].t52141.torrent
Torrent: Registered   [ 2017-12-11 02:36 ]

Download .torrent

Download

15 KB

Status: checked
Completed: 16 times
Size: 745 MB
terms.php

#1

11-Dec-2017 01:20

[Profile]  [PM] 
Display posts:    

You cannot post new topics in this forum
You cannot reply to topics in this forum
You cannot edit your posts in this forum
You cannot delete your posts in this forum
You cannot vote in polls in this forum
You cannot attach files in this forum
You can download files in this forum
User agreement
For copyright holders
Advertise on this site

Скачайте на халяву через торрент на трекере erzsebet.pl

!ATTENTION!
The site does not give electronic versions of products, and is engaged only in a collecting and cataloguing of the references sent and published at a forum by our readers. If you are the legal owner of any submitted material and do not wish that the reference to it was in our catalogue, contact us and we shall immediately remove her. Files for an exchange on tracker are given by users of a site, and the administration does not bear the responsibility for their maintenance. The request to not fill in the files protected by copyrights, and also files of the illegal maintenance!