Убийства на Китайском озере / Убийства в Чайна Лейке / The China Lake Murders (Алан Мецгер / Alan Metzger) [1990, США, Триллер, TVRip] AVO (Андрей Дольский)

DL-List and Torrent activity
Size:  1.37 GB   |    Registered:  2 years 10 months   |    Completed:  16 times
Seeders:  2  
 
   
 
 

Max Levien ®

Longevity:
2 years 10 months
Posts:
20374

[Quote] 

Убийства на Китайском озере / Убийства в Чайна Лейке / The China Lake Murders
«Каждый год, офицер Донели отправляется на Китайское Озеро чтобы отдохнуть, немного порыбачить....убить немного людей
Вы можете доверять ему.....он полицейский»
Страна: США
Жанр: Триллер
Год выпуска: 1990
Продолжительность: 01:29:02
Перевод: Авторский (одноголосый закадровый) Андрей Дольский
Субтитры: нет
Режиссер: Алан Мецгер / Alan Metzger
В ролях: Том Скеррит, Майкл Паркс, Нэнси Эверхард, Лорен Тьюис, Билл МакКинни, Лонни Чэпмен, Дж. К. Куин, Дэвид Л. Кроули, Даг Мирс, Том Дальгрен
Описание: Аннотация от alenavova
Почему из двух похожих по темпераменту, привычкам и образу жизни полицейских с большим стажем работы один станосится маньяком - убийцей (15 хладнокровных убийств за 5 лет невинных одиноких жертв на шоссе)? Этот вопрос невольно вызывает психологический детектив, в котором сделана попытка показать убийцу как заурядного гражданина, без особых психических сдвигов. В фильме безжалостно препарируется жизнь заурядных полицейских, которым благополучное американское общество ничего (духовно!) не может предложить, кроме возможности открыть клапан для выхода неконтролируемого насилия. Актеры Т. Скеррит и М. Паркс, как всегда, убедительны, хотя и не броски. Фильм следует посмотреть всем, кого интересует психология убийц.
Доп. информация: Дорожка с А. Дольским ремастерирована, синхронизирована и наложена ale_x2008 при помощи Sony Vegas и VirtualDubMod.
За оцифрованную с VHS дорожку благодарим - alenavova

Релиз
Сэмпл: https://yadi.sk/i/JTi-Tbfsmqzcs
Качество видео: TVRip
Формат видео: AVI
Видео: XviD build 73, 640x480 (1.33:1), 23976 fps, 1996 kbps avg, 0.27 bit/pixel
Аудио: AC3 Dolby Digital, 48000Hz, 2/0 (L,R) ch (mono), 192.00 kbps avg

MediaInfo

Убийства на Китайском озере - The China Lake Murders [by ale_x2008].avi
Format : AVI
Format/Info : Audio Video Interleave
File size : 1.37 GiB
Duration : 1h 29mn
Overall bit rate : 2 198 Kbps
Movie name : Убийства на Китайском озере - The China Lake Murders [by ale_x2008]
Director : by ale_x2008
Writing application : VirtualDubMod 1.5.10.3 (build 2550/release)
Copyright : Edich2
Comment : erzsebet.org
Video
ID : 0
Format : MPEG-4 Visual
Format profile : Advanced [email protected]
Format settings, BVOP : 1
Format settings, QPel : No
Format settings, GMC : No warppoints
Format settings, Matrix : Default (MPEG)
Codec ID : XVID
Codec ID/Hint : XviD
Duration : 1h 29mn
Bit rate : 1 997 Kbps
Width : 640 pixels
Height : 480 pixels
Display aspect ratio : 4:3
Frame rate : 23.976 fps
Color space : YUV
Chroma subsampling : 4:2:0
Bit depth : 8 bits
Scan type : Progressive
Compression mode : Lossy
Bits/(Pixel*Frame) : 0.271
Stream size : 1.24 GiB (91%)
Writing library : XviD 73
Audio
ID : 1
Format : AC-3
Format/Info : Audio Coding 3
Mode extension : CM (complete main)
Format settings, Endianness : Big
Codec ID : 2000
Duration : 1h 29mn
Bit rate mode : Constant
Bit rate : 192 Kbps
Channel(s) : 2 channels
Channel positions : Front: L R
Sampling rate : 48.0 KHz
Bit depth : 16 bits
Compression mode : Lossy
Stream size : 122 MiB (9%)
Alignment : Split accross interleaves
Interleave, duration : 42 ms (1.00 video frame)
Interleave, preload duration : 500 ms

Скриншоты


If your ratio falls below 0.3, you will not be able to download Torrents! More about the rating.

[erzsebet.pl].t52143.torrent
Torrent: Registered   [ 2017-12-11 02:36 ]

Download .torrent

Download

14 KB

Status: checked
Completed: 16 times
Size: 1.37 GB
terms.php

#1

11-Dec-2017 01:20

[Profile]  [PM] 
Display posts:    

You cannot post new topics in this forum
You cannot reply to topics in this forum
You cannot edit your posts in this forum
You cannot delete your posts in this forum
You cannot vote in polls in this forum
You cannot attach files in this forum
You can download files in this forum
User agreement
For copyright holders
Advertise on this site

Скачайте на халяву через торрент на трекере erzsebet.pl

!ATTENTION!
The site does not give electronic versions of products, and is engaged only in a collecting and cataloguing of the references sent and published at a forum by our readers. If you are the legal owner of any submitted material and do not wish that the reference to it was in our catalogue, contact us and we shall immediately remove her. Files for an exchange on tracker are given by users of a site, and the administration does not bear the responsibility for their maintenance. The request to not fill in the files protected by copyrights, and also files of the illegal maintenance!