Бессмертные / Nemuritorii (Серджиу Николаеску / Sergiu Nicolaescu) [1974, Румыния, Исторический, DVDRip] Dub + AVO + Sub

DL-List and Torrent activity
Size:  752 MB   |    Registered:  2 years 10 months   |    Completed:  16 times
Seeders:  2  
 
   
 
 

Max Levien ®

Longevity:
2 years 10 months
Posts:
20374

[Quote] 

Бессмертные / Nemuritorii
Страна: Румыния
Жанр: Исторический
Год выпуска: 1974
Продолжительность: 01:43:03
Перевод: Профессиональный (дублированный) вперемешку с авторским (одноголосым закадровым) - Антон Алексеев - под вырезанные сцены
Перевод 2: Субтитры под вырезанные сцены
Субтитры: русские
Оригинальная аудиодорожка: нет
Режиссер: Серджиу Николаеску / Sergiu Nicolaescu
В ролях: Иларион Чобану, Серджиу Николаеску, Амза Пелля, Ион Апахидеану, Ион Бесоиу, Георге Диница
Описание: Этот фильм - своего рода эпилог эпопеи "Михай Храбрый". После трагической гибели в 1601 году Михая Храброго румыны вновь оказались под гнетом турок, австрийцев и венгров. Десять лет скитались по чужбине группа воинов, сберегая знамя Михая Храброго...
Доп. информация: Рип сделан с этого исходника: http://erzsebet.org/forum/viewtopic.php?t=4507713
Субтитры взяты отсюда: http://erzsebet.org/forum/viewtopic.php?t=630872
Сэмпл: http://multi-up.com/892946
Качество видео: DVDRip
Формат видео: AVI
Видео: 879 Кбит/сек, 672*496 (4:3), в 25,000 кадров/сек, MPEG-4 Visual (XviD) (Advanced [email protected]) (BVOP2)
Аудио: Русский, 128 Кбит/сек, 48,0 КГц, 1 канал, MPEG Audio (MP3) (Version 1) (Layer 3)
Формат субтитров: softsub (SRT)
Доп. информация о субтитрах: русские

MediaInfo

Формат : AVI
Формат/Информация : Audio Video Interleave
Размер файла : 752 Мбайт
Продолжительность : 1 ч. 43 м.
Общий поток : 1020 Кбит/сек
Видео
Идентификатор : 0
Формат : MPEG-4 Visual
Профиль формата : Advanced [email protected]
Параметр BVOP формата : 2
Параметр QPel формата : Нет
Параметр GMC формата : Без точки перехода
Параметр матрицы формата : Default (MPEG)
Идентификатор кодека : XVID
Идентификатор кодека/Подсказка : XviD
Продолжительность : 1 ч. 43 м.
Битрейт : 879 Кбит/сек
Ширина : 672 пикселя
Высота : 496 пикселей
Соотношение сторон : 4:3
Частота кадров : 25,000 кадров/сек
Цветовое пространство : YUV
Субдискретизация насыщенности : 4:2:0
Битовая глубина : 8 бит
Тип развёртки : Прогрессивная
Метод сжатия : С потерями
Бит/(Пиксели*Кадры) : 0.106
Размер потока : 648 Мбайт (86%)
Библиотека кодирования : XviD 1.2.1 (UTC 2008-12-04)
Аудио
Идентификатор : 1
Формат : MPEG Audio
Версия формата : Version 1
Профиль формата : Layer 3
Идентификатор кодека : 55
Идентификатор кодека/Подсказка : MP3
Продолжительность : 1 ч. 43 м.
Продолжительность оригинала : 1 ч. 43 м.
Вид битрейта : Постоянный
Битрейт : 128 Кбит/сек
Каналы : 1 канал
Частота : 48,0 КГц
Метод сжатия : С потерями
Размер потока : 94,3 Мбайт (13%)
Выравнивание : Разделение по промежуткам
Продолжительность промежутка : 24 мс. (0,60 видеокадр)
Библиотека кодирования : LAME3.98.2

Скриншот c названием фильма

Скриншоты

If your ratio falls below 0.3, you will not be able to download Torrents! More about the rating.

[erzsebet.pl].t52145.torrent
Torrent: Registered   [ 2017-12-11 02:36 ]

Download .torrent

Download

15 KB

Status: checked
Completed: 16 times
Size: 752 MB
terms.php

#1

11-Dec-2017 01:20

[Profile]  [PM] 
Display posts:    

You cannot post new topics in this forum
You cannot reply to topics in this forum
You cannot edit your posts in this forum
You cannot delete your posts in this forum
You cannot vote in polls in this forum
You cannot attach files in this forum
You can download files in this forum
User agreement
For copyright holders
Advertise on this site

Скачайте на халяву через торрент на трекере erzsebet.pl

!ATTENTION!
The site does not give electronic versions of products, and is engaged only in a collecting and cataloguing of the references sent and published at a forum by our readers. If you are the legal owner of any submitted material and do not wish that the reference to it was in our catalogue, contact us and we shall immediately remove her. Files for an exchange on tracker are given by users of a site, and the administration does not bear the responsibility for their maintenance. The request to not fill in the files protected by copyrights, and also files of the illegal maintenance!