Ежи рождаются без колючек / Таралежите се раждат без бодли (Димитр Петров / Димитър Петров) [1971, Болгария, комедия, детский, VHSRip > DVD] [Советская прокатная копия] Dub (Горького)

DL-List and Torrent activity
Size:  2.36 GB   |    Registered:  2 years 10 months   |    Completed:  16 times
Seeders:  2  
 
   
 
 

Max Levien ®

Longevity:
2 years 10 months
Posts:
20374

[Quote] 

Ежи рождаются без колючек / Таралежите се раждат без бодли [Советская прокатная копия]- Страна: Болгария
Жанр: детский, комедия
Год выпуска: 1971
Продолжительность: 01:14:06-Перевод: Профессиональный (дублированный) - Киностудия им. М. Горького
Субтитры: нет-Режиссер: Димитр Петров / Димитър Петров
В ролях: Ивайло Джамбазов, Нейко Нейков, Петр Пейчев, Андрей Слабаков, Иван Аршинков, Димитар Цонев, Саркис Мухибян, Румена Трифонова, Димитар Панов, Николай Дойчев...- | Релиз: -Описание: Фильм состоит из трёх новелл - "Тревожное явление", Мстители", "Подарок" - о ребятах одного из софийских кварталов, о законах детства, порой жестоких и прямолинейных, но в главном - честных и чистых.
Новичок-четверокласник Митко умеет шевелить ушами, поэтому становится в центре внимания своего класса. Все ребята пробуют силы в этом искусстве. Учительница пения решила, что именно в этом причина плохой дисциплины на её уроках, и начала бороться с ребятами. В результате в школе начинается стихийное бедствие: шевелить ушами пытаются все ученики...
Во второй новелле рассказывается о войне между ребятами и продавцом бакалейного магазина дядей Танасом. Однажды Танас поймал маленького Коко, пытавшегося достать мяч, попавший в окно магазина, и, невзирая на просьбы мальчишек, отвел его к родителям. Тогда ребята придумали месть: от имени продавца они призвали жителей квартала сдать в определенный день всю стеклянную тару.
...Родители Кынчо купили ему на день рождения футбольный мяч и спрятали его. Кынчо со своим младшим братом отыскали подарок и решили поиграть им с ребятами во дворе, в результате мяч попал в кузов уехавшего грузовика. Ребята решили собрать деньги и купить новый мяч. В конце концов у мальчишек оказалось два мяча - шофёр вернул пропажу.-Семпл: http://sendfile.su/1276953-Тип релиза: VHSRip
Контейнер: DVD-Video
Видео: 720x576 (4:3) @ 768x576, 25.000 fps, MPEG-2 Video, ~4168 Kbps, 0.402 bits/pixel
Аудио: Русский, 48.0 KHz, MPEG-1 Audio layer 2, 2 ch, 256 Kbps

DVDInfo

Title: Ежи рождаются без колючек 1971 Dub Горького
Size: 2.36 Gb ( 2 475 750,00 KBytes ) - DVD-5
Enabled regions: 1, 2, 3, 4, 5, 6, 7, 8
VTS_01 :
Play Length: 01:14:06
Video: PAL 4:3 (720x576) VBR
Audio:
Not specified (MPEG1, 2 ch)

MediaInfo

General
Complete name : \Ежи рождаются без колючек 1971 Dub Горького\VIDEO_TS\VTS_01_1.VOB
Format : MPEG-PS
File size : 1 024 MiB
Duration : 30 min 42 s
Overall bit rate mode : Variable
Overall bit rate : 4 662 kb/s
Video
ID : 224 (0xE0)
Format : MPEG Video
Format version : Version 2
Format profile : [email protected]
Format settings, BVOP : Yes
Format settings, Matrix : Default
Format settings, GOP : M=3, N=12
Format settings, picture structure : Frame
Duration : 30 min 42 s
Bit rate mode : Variable
Bit rate : 4 313 kb/s
Maximum bit rate : 6 999 kb/s
Width : 720 pixels
Height : 576 pixels
Display aspect ratio : 4:3
Frame rate : 25.000 FPS
Standard : PAL
Color space : YUV
Chroma subsampling : 4:2:0
Bit depth : 8 bits
Scan type : Interlaced
Scan order : Top Field First
Compression mode : Lossy
Bits/(Pixel*Frame) : 0.416
Time code of first frame : 00:00:00:00
Time code source : Group of pictures header
GOP, Open/Closed : Closed
Stream size : 947 MiB (93%)
Color primaries : BT.601 NTSC
Transfer characteristics : BT.601
Matrix coefficients : BT.601
Audio
ID : 192 (0xC0)
Format : MPEG Audio
Format version : Version 1
Format profile : Layer 2
Duration : 30 min 42 s
Bit rate mode : Constant
Bit rate : 256 kb/s
Channel(s) : 2 channels
Sampling rate : 48.0 kHz
Compression mode : Lossy
Delay relative to video : 145 ms
Stream size : 56.2 MiB (5%)
Menu

Описание из "Аннотированного каталога фильмов действующего фонда", 1980г.

If your ratio falls below 0.3, you will not be able to download Torrents! More about the rating.

[erzsebet.pl].t52148.torrent
Torrent: Registered   [ 2017-12-11 02:36 ]

Download .torrent

Download

13 KB

Status: checked
Completed: 16 times
Size: 2.36 GB
terms.php

#1

11-Dec-2017 01:20

[Profile]  [PM] 
Display posts:    

You cannot post new topics in this forum
You cannot reply to topics in this forum
You cannot edit your posts in this forum
You cannot delete your posts in this forum
You cannot vote in polls in this forum
You cannot attach files in this forum
You can download files in this forum
User agreement
For copyright holders
Advertise on this site

Скачайте на халяву через торрент на трекере erzsebet.pl

!ATTENTION!
The site does not give electronic versions of products, and is engaged only in a collecting and cataloguing of the references sent and published at a forum by our readers. If you are the legal owner of any submitted material and do not wish that the reference to it was in our catalogue, contact us and we shall immediately remove her. Files for an exchange on tracker are given by users of a site, and the administration does not bear the responsibility for their maintenance. The request to not fill in the files protected by copyrights, and also files of the illegal maintenance!