Беспокойный дом / Aldri annet enn bråk (Эдит Калмар / Edith Carlmar) [1954, Норвегия, Драма, DVDRip] VO + Sub Rus + Original Nor

DL-List and Torrent activity
Size:  1.01 GB   |    Registered:  2 years 10 months   |    Completed:  16 times
Seeders:  3   Leechers:  1   Show peers in full details
 
   
 
 

Max Levien ®

Longevity:
2 years 10 months
Posts:
20374

[Quote] 

Беспокойный дом / Aldri annet enn bråk
Страна: Норвегия
Жанр: Драма
Год выпуска: 1954
Продолжительность: 01:17:45
Перевод: Одноголосый закадровый
Субтитры: русские
Оригинальная аудиодорожка: норвежский
Режиссер: Эдит Калмар / Edith Carlmar
В ролях: Андреас Дайсен / Andreas Diesen, Svein Bruun-Lie, Burre Lech-Hanssen, Турид Хааланд / Turid Haaland, Стиг Эгеде-Ниссен / Stig Egede-Nissen, Вигдис Рёйсинг / Vigdis Røising, Sven Libaek, Уилфред Вернер / Wilfred Werner, Didi Grimsgaard, Арвидс Нилссен / Arvid Nilssen, Nona Bækken, Gunnar Olram, Synnøve Gleditsch, Lydia Opøien, Karin Hox, Jorun Eriksen, Вилли Крамер Йохансен / Willy Kramer Johansen, Эгиль Хьорт-Йенссен / Egil Hjorth-Jenssen, Анита Эллингсен / Anita Ellingsen.
Описание: Этот фильм рассказывает о детях и подростках живущих в одном многоквартирном доме в Осло, в середине 50-х годов прошлого столетия. Трое подростков угоняют автомобиль. В результате этого инцидента происходит наезд на пешехода, сама машина оказывается в реке, а один из угонщиков получат небольшую травму. Вся троица оказывается в полицейском участке.
Доп. информация: Фильм взят отсюда http://erzsebet.org/forum/viewtopic.php?t=4656027
Сэмпл: http://multi-up.com/954971
Качество видео: DVDRip
Формат видео: AVI
Видео: MPEG-4 Visual at 1594 Кбит/сек : 720 x 640 (1.125) at 25.000 fps
Аудио 1: MPEG Audio at 128 Кбит/сек : 2 канала, 44,1 КГц (Русский)
Аудио 2: MPEG Audio at 128 Кбит/сек : 2 канала, 44,1 КГц (Норвежский)
Формат субтитров: softsub (SRT)
Доп. информация о субтитрах: Русские внешние (vsasha), вшитые норвежские.

MediaInfo

Общее
Полное имя : F:\С моей озвучкой\Беспокойный дом\Aldri annet enn bråk.avi
Формат : AVI
Формат/Информация : Audio Video Interleave
Размер файла : 1,01 Гбайт
Продолжительность : 1 ч. 17 м.
Общий поток : 1864 Кбит/сек
Программа кодирования : VirtualDubModRus 1.5.10.2 (build 2542/release)
Библиотека кодирования : VirtualDubMod build 2542/release
Видео
Идентификатор : 0
Формат : MPEG-4 Visual
Профиль формата : Advanced [email protected]
Параметр BVOP формата : 2
Параметр QPel формата : Нет
Параметр GMC формата : Без точки перехода
Параметр матрицы формата : Default (H.263)
Режим смешивания : Сжатый битовый поток
Идентификатор кодека : XVID
Идентификатор кодека/Подсказка : XviD
Продолжительность : 1 ч. 17 м.
Битрейт : 1594 Кбит/сек
Ширина : 720 пикселей
Высота : 640 пикселей
Соотношение сторон : 1,125
Частота кадров : 25,000 кадров/сек
Цветовое пространство : YUV
Субдискретизация насыщенности : 4:2:0
Битовая глубина : 8 бит
Тип развёртки : Прогрессивная
Метод сжатия : С потерями
Бит/(Пиксели*Кадры) : 0.138
Размер потока : 886 Мбайт (85%)
Библиотека кодирования : XviD 1.0.1 (UTC 2004-06-05)
Аудио #1
Идентификатор : 1
Формат : MPEG Audio
Версия формата : Version 1
Профиль формата : Layer 3
Режим : Joint stereo
Расширение режима : MS Stereo
Идентификатор кодека : 55
Идентификатор кодека/Подсказка : MP3
Продолжительность : 1 ч. 17 м.
Вид битрейта : Постоянный
Битрейт : 128 Кбит/сек
Каналы : 2 канала
Частота : 44,1 КГц
Метод сжатия : С потерями
Размер потока : 71,2 Мбайт (7%)
Выравнивание : Разделение по промежуткам
Продолжительность промежутка : 40 мс. (1,00 видеокадр)
Время предзагрузки промежутка : 500 мс.
Аудио #2
Идентификатор : 2
Формат : MPEG Audio
Версия формата : Version 1
Профиль формата : Layer 3
Идентификатор кодека : 55
Идентификатор кодека/Подсказка : MP3
Продолжительность : 1 ч. 17 м.
Вид битрейта : Постоянный
Битрейт : 128 Кбит/сек
Каналы : 2 канала
Частота : 44,1 КГц
Метод сжатия : С потерями
Задержка видео : 26 мс.
Размер потока : 71,2 Мбайт (7%)
Выравнивание : Разделение по промежуткам
Продолжительность промежутка : 40 мс. (1,00 видеокадр)
Время предзагрузки промежутка : 500 мс.

Скриншоты

If your ratio falls below 0.3, you will not be able to download Torrents! More about the rating.

[erzsebet.pl].t52154.torrent
Torrent: Registered   [ 2017-12-11 02:36 ]

Download .torrent

Download

11 KB

Status: checked
Completed: 16 times
Size: 1.01 GB
terms.php

#1

11-Dec-2017 01:20

[Profile]  [PM] 
Display posts:    

You cannot post new topics in this forum
You cannot reply to topics in this forum
You cannot edit your posts in this forum
You cannot delete your posts in this forum
You cannot vote in polls in this forum
You cannot attach files in this forum
You can download files in this forum
User agreement
For copyright holders
Advertise on this site

Скачайте на халяву через торрент на трекере erzsebet.pl

!ATTENTION!
The site does not give electronic versions of products, and is engaged only in a collecting and cataloguing of the references sent and published at a forum by our readers. If you are the legal owner of any submitted material and do not wish that the reference to it was in our catalogue, contact us and we shall immediately remove her. Files for an exchange on tracker are given by users of a site, and the administration does not bear the responsibility for their maintenance. The request to not fill in the files protected by copyrights, and also files of the illegal maintenance!