Час убийцы / Hour of the Assassin (Луис Ллоса / Luis Llosa) [1987, Перу, США, Боевик, VHSRip] VO (Михаил Загот)

DL-List and Torrent activity
Size:  1.33 GB   |    Registered:  2 years 10 months   |    Completed:  16 times
Seeders:  2  
 
   
 
 

Max Levien ®

Longevity:
2 years 10 months
Posts:
20374

[Quote] 

Час убийцы / Hour of the Assassin

Страна: Перу, США
Жанр: Боевик
Год выпуска: 1987
Продолжительность: 01:33:11
Перевод: Одноголосый закадровый Михаил Загот

скрытый текст

Михаил Александрович Загот, профессиональный переводчик, член Союза Переводчиков России, Союза Писателей России и шансонье.
Его голос знаком многим. Особенно тем, кто в 1980-ые годы заглядывал в видеосалоны, или покупал видеокассеты. Михаил Александрович один из первых на заре прихода к нам западного кино мастерски переводил фильмы.
Переводил видео лет 8, примерно с 1985 по 1993. Фильмы: DEATH BECOMES HER, GUILTY AS SIN, TAXI DRIVER, ONCE UPON A TIME IN AMERICA, FISH CALLED WANDA, SINGLE WHITE FEMALE, BIRDS, KING DAVID, AMERICAN GIGOLO и многие другие......
Субтитры: нет
Режиссер: Луис Ллоса / Luis Llosa
В ролях: Эрик Эстрада, Роберт Вон, Альфредо Альварес Кальдерон, Орландо Саша, Рейнальдо Аренас, Лурдес Бернинзон, Рамон Гарсия, Освальдо Фернандез, Рамон Гарсия Рибейро, Густаво МакЛеннан
Описание: Профессиональный убийца отправляется из Лос-Анджелеса в Латинскую Америку, чтобы устранить только что избранного демократического президента. Агент ЦРУ получает задание остановить киллера.
Доп. информация: Звуковая дорожка синхронизирована и наложена ale_x2008 при помощи Adobe Audition, Sony Vegas и VirtualDubMod.
За оцифрованную с VHS дорожку благодарим - Анна57

Релиз
Сэмпл: https://yadi.sk/i/Dlov34PtigbBT
Качество видео: VHSRip
Формат видео: AVI
Видео: XviD build 50, 640x480 (1.33:1), 23.976 fps, 1835 kbps avg, 0.25 bit/pixel
Аудио: AC3 Dolby Digital, 48000Hz, 2/0 (L,R) ch (mono), 192.00 kbps avg

MediaInfo

Час убийцы - Hour of the Assassin [by ale_x2008].avi
Format : AVI
Format/Info : Audio Video Interleave
File size : 1.33 GiB
Duration : 1h 33mn
Overall bit rate : 2 037 Kbps
Movie name : Час убийцы - Hour of the Assassin [by ale_x2008]
Director : by ale_x2008
Writing application : VirtualDubMod 1.5.10.3 (build 2550/release)
Copyright : Edich2
Comment : erzsebet.org
Video
ID : 0
Format : MPEG-4 Visual
Format profile : Advanced [email protected]
Format settings, BVOP : 1
Format settings, QPel : No
Format settings, GMC : No warppoints
Format settings, Matrix : Default (MPEG)
Codec ID : XVID
Codec ID/Hint : XviD
Duration : 1h 33mn
Bit rate : 1 836 Kbps
Width : 640 pixels
Height : 480 pixels
Display aspect ratio : 4:3
Frame rate : 23.976 fps
Color space : YUV
Chroma subsampling : 4:2:0
Bit depth : 8 bits
Scan type : Progressive
Compression mode : Lossy
Bits/(Pixel*Frame) : 0.249
Stream size : 1.20 GiB (90%)
Writing library : XviD 1.2.1 (UTC 2008-12-04)
Audio
ID : 1
Format : AC-3
Format/Info : Audio Coding 3
Mode extension : CM (complete main)
Format settings, Endianness : Big
Codec ID : 2000
Duration : 1h 33mn
Bit rate mode : Constant
Bit rate : 192 Kbps
Channel(s) : 2 channels
Channel positions : Front: L R
Sampling rate : 48.0 KHz
Bit depth : 16 bits
Compression mode : Lossy
Stream size : 128 MiB (9%)
Alignment : Split accross interleaves
Interleave, duration : 42 ms (1.00 video frame)
Interleave, preload duration : 500 ms

Скриншоты



If your ratio falls below 0.3, you will not be able to download Torrents! More about the rating.

[erzsebet.pl].t52155.torrent
Torrent: Registered   [ 2017-12-11 02:36 ]

Download .torrent

Download

14 KB

Status: checked
Completed: 16 times
Size: 1.33 GB
terms.php

#1

11-Dec-2017 01:20

[Profile]  [PM] 
Display posts:    

You cannot post new topics in this forum
You cannot reply to topics in this forum
You cannot edit your posts in this forum
You cannot delete your posts in this forum
You cannot vote in polls in this forum
You cannot attach files in this forum
You can download files in this forum
User agreement
For copyright holders
Advertise on this site

Скачайте на халяву через торрент на трекере erzsebet.pl

!ATTENTION!
The site does not give electronic versions of products, and is engaged only in a collecting and cataloguing of the references sent and published at a forum by our readers. If you are the legal owner of any submitted material and do not wish that the reference to it was in our catalogue, contact us and we shall immediately remove her. Files for an exchange on tracker are given by users of a site, and the administration does not bear the responsibility for their maintenance. The request to not fill in the files protected by copyrights, and also files of the illegal maintenance!