Свежие лошади / Fresh horses (Дэвид Анспог / David Anspaugh) [1988, США, Драма, DVDRip] VO

DL-List and Torrent activity
Size:  1.46 GB   |    Registered:  2 years 10 months   |    Completed:  16 times
Seeders:  3  
 
   
 
 

Max Levien ®

Longevity:
2 years 10 months
Posts:
20374

[Quote] 

Свежие лошади / Fresh horses
Страна: США
Жанр: Драма
Год выпуска: 1988
Продолжительность: 01:42:57
Перевод: Любительский (одноголосый закадровый)
Субтитры: нет
Режиссер: Дэвид Анспог / David Anspaugh
В ролях: Молли Рингвэлд, Эндрю МакКарти, Пэтти Д'Арбанвилль, Бен Стиллер, Леон Рассом
Описание: Юноша обручен с прекрасной девушкой, однако перед женитьбой он хочет "нагуляться". Отправившись на вечеринку со своим лучшим другом, он встречает незнакомую девушку и начинает чувствовать к ней влечение. Они сближаются и становятся любовниками. Парень уже хочет разорвать помолвку с невестой, но скоро приходит к выводу, что его новая знакомая недостаточно хороша для него. Она – замужем, и он чувствует, что она использует его только как повод для развода с мужем, которого она называет ублюдком. И тогда в следующий раз наш герой появляется на вечеринке в том же доме вместе с друзьями и своей невестой. "Не та" девушка обнаруживает их и очень расстраивается. Все понятно, решает она, отношениям пришел конец. Но и парень ужасно расстраивается – он вовсе не хотел разрывать отношения совсем уж некрасиво. Он приезжает к недавней любовнице домой, чтобы вернуть принадлежащие ей вещи и помочь уйти от мужа. Муж отказывается подписать бумаги о разводе, и тогда у нее случается истерика, и она покидает обоих мужчин.
Доп. информация: Данный DVDRip сделан из DVD9, за который, огромное спасибо "tong777"!!!
Сэмпл: http://multi-up.com/512713
Качество видео: DVDRip
Формат видео: AVI
Видео: 640x480 (1.33:1), 23.976 fps, XviD build 50, 1832 kbps avg, 0.25 bit/pixel
Аудио: Русский: 48 kHz, AC3 Dolby Digital, 2/0 (L,R) ch, 192.00 kbps avg

MediaInfo

General
Complete name : D:\МОИ РАЗДАЧИ\Fresh Horses.avi
Format : AVI
Format/Info : Audio Video Interleave
File size : 1.46 GiB
Duration : 1h 42mn
Overall bit rate : 2 034 Kbps
Writing application : VirtualDubMod 1.5.10.2 (build 2540/release)
Writing library : VirtualDubMod build 2540/release
Video
ID : 0
Format : MPEG-4 Visual
Format profile : Advanced [email protected]
Format settings, BVOP : Yes
Format settings, QPel : No
Format settings, GMC : No warppoints
Format settings, Matrix : Default (MPEG)
Codec ID : XVID
Codec ID/Hint : XviD
Duration : 1h 42mn
Bit rate : 1 833 Kbps
Width : 640 pixels
Height : 480 pixels
Display aspect ratio : 4:3
Frame rate : 23.976 fps
Resolution : 8 bits
Colorimetry : 4:2:0
Scan type : Progressive
Bits/(Pixel*Frame) : 0.249
Stream size : 1.32 GiB (90%)
Writing library : XviD 1.2.1 (UTC 2008-12-04)
Audio
ID : 1
Format : AC-3
Format/Info : Audio Coding 3
Codec ID : 2000
Duration : 1h 42mn
Bit rate mode : Constant
Bit rate : 192 Kbps
Channel(s) : 2 channels
Channel positions : L R
Sampling rate : 48.0 KHz
Stream size : 141 MiB (9%)
Alignment : Aligned on interleaves
Interleave, duration : 42 ms (1.00 video frame)
Interleave, preload duration : 512 ms

Скриншот c названием фильма

Скриншоты

If your ratio falls below 0.3, you will not be able to download Torrents! More about the rating.

[erzsebet.pl].t52156.torrent
Torrent: Registered   [ 2017-12-11 02:36 ]

Download .torrent

Download

15 KB

Status: checked
Completed: 16 times
Size: 1.46 GB
terms.php

#1

11-Dec-2017 01:20

[Profile]  [PM] 
Display posts:    

You cannot post new topics in this forum
You cannot reply to topics in this forum
You cannot edit your posts in this forum
You cannot delete your posts in this forum
You cannot vote in polls in this forum
You cannot attach files in this forum
You can download files in this forum
User agreement
For copyright holders
Advertise on this site

Скачайте на халяву через торрент на трекере erzsebet.pl

!ATTENTION!
The site does not give electronic versions of products, and is engaged only in a collecting and cataloguing of the references sent and published at a forum by our readers. If you are the legal owner of any submitted material and do not wish that the reference to it was in our catalogue, contact us and we shall immediately remove her. Files for an exchange on tracker are given by users of a site, and the administration does not bear the responsibility for their maintenance. The request to not fill in the files protected by copyrights, and also files of the illegal maintenance!