Доктор Детройт / Doctor Detroit (Майкл Прессман / Michael Pressman) [1983, США, комедия, DVDRip] MVO (СТС) + Original Eng

DL-List and Torrent activity
Size:  1.38 GB   |    Registered:  2 years 10 months   |    Completed:  16 times
Seeders:  2  
 
   
 
 

Max Levien ®

Longevity:
2 years 10 months
Posts:
20374

[Quote] 

Доктор Детройт / Doctor Detroit
Год выпуска: 1983
Страна: США
Жанр: комедия
Продолжительность: 01:30:24
Перевод: Профессиональный (многоголосый закадровый) - СТС
Субтитры: нет
Оригинальная аудиодорожка: английский
Режиссер: Майкл Прессман / Michael Pressman
В ролях: Дэн Эйкройд (Clifford Skridlow / Doctor Detroit), Ховард Хессеман (Smooth Walker), Донна Диксон (Monica McNeil), Лидия Лей (Jasmine Wu), Т.К. Картер (Diavolo Washington), Линн Уитфилд (Thelma Cleland), Фрэн Дрешер (Karen Blittstein), Джон А. Малони (Commodore), Першинг П. Андерсон (Stretch), Уильям Манчоу (Professor Artel)-Мировая премьера: 6 мая 1983-Описание: Доктор Детройт — профессор, специалист по английской литературе, уважаемый человек. Однако на полное собрание сочинений Шекспира профессорской зарплаты не хватает — приходится по ночам подрабатывать сутенером…-Доп. информация:
За исходник видео большое спасибо mersicc.
За запись перевода от телеканала СТС с телеканала ТНТ в 2000-х годах через видеомагнитофон и оцифровку с видеокассеты большое спасибо kinaman.
Синхронизация перевода - JUSTKANT.-Данный перевод на трекере появляется впервые.
На русский язык фильм озвучен по заказу СТС в 1999 году.
Мужские роли озвучивают Сергей Быстрицкий и Сергей Чонишвили, часть женских ролей озвучивает Наталья Гурзо.-
Рейтинг

MPAA: R - Лицам до 17 лет обязательно присутствие взрослого.-Качество видео: DVDRip
Формат видео: AVI -> //SAMPLE//
Видео: XviD, 720x384 (1,85:1), 23.976 fps, 1598 kbps avg
Аудио:
1 - 48 khz, AC3 Dolby Digital, 2/0 (L,R) ch, ~192 kbps [СТС / ТНТ] VHSRip
2 - 48 khz, AC3 Dolby Digital, 5/1 (L,R) ch, ~448 kbps [Английский]

MediaInfo

General
Complete name : D:\Релизы на Трекере\Доктор Детройт (СТС + Original Eng).avi
Format : AVI
Format/Info : Audio Video Interleave
File size : 1.42 GiB
Duration : 1h 30mn
Overall bit rate : 2 253 Kbps
Writing application : VirtualDubMod 1.5.10.2 (build 2540/release)
Writing library : VirtualDubMod build 2540/release
Video
ID : 0
Format : MPEG-4 Visual
Format profile : Advanced [email protected]
Format settings, BVOP : 1
Format settings, QPel : No
Format settings, GMC : No warppoints
Format settings, Matrix : Custom
Codec ID : XVID
Codec ID/Hint : XviD
Duration : 1h 30mn
Bit rate : 1 598 Kbps
Width : 720 pixels
Height : 384 pixels
Display aspect ratio : 1.85:1
Frame rate : 23.976 fps
Color space : YUV
Chroma subsampling : 4:2:0
Bit depth : 8 bits
Scan type : Progressive
Compression mode : Lossy
Bits/(Pixel*Frame) : 0.241
Stream size : 1.01 GiB (71%)
Writing library : XviD 1.2.1 (UTC 2008-12-04)
Audio #1
ID : 1
Format : AC-3
Format/Info : Audio Coding 3
Mode extension : CM (complete main)
Format settings, Endianness : Big
Codec ID : 2000
Duration : 1h 30mn
Bit rate mode : Constant
Bit rate : 192 Kbps
Channel(s) : 2 channels
Channel positions : Front: L R
Sampling rate : 48.0 KHz
Bit depth : 16 bits
Compression mode : Lossy
Stream size : 124 MiB (9%)
Alignment : Split accross interleaves
Interleave, duration : 42 ms (1.00 video frame)
Interleave, preload duratio : 500 ms
Audio #2
ID : 2
Format : AC-3
Format/Info : Audio Coding 3
Mode extension : CM (complete main)
Format settings, Endianness : Big
Codec ID : 2000
Duration : 1h 30mn
Bit rate mode : Constant
Bit rate : 448 Kbps
Channel(s) : 6 channels
Channel positions : Front: L C R, Side: L R, LFE
Sampling rate : 48.0 KHz
Bit depth : 16 bits
Compression mode : Lossy
Stream size : 290 MiB (20%)
Alignment : Split accross interleaves
Interleave, duration : 42 ms (1.00 video frame)
Interleave, preload duratio : 500 ms

Скриншот c названием фильма

Скриншоты

If your ratio falls below 0.3, you will not be able to download Torrents! More about the rating.

[erzsebet.pl].t52159.torrent
Torrent: Registered   [ 2017-12-11 02:36 ]

Download .torrent

Download

14 KB

Status: checked
Completed: 16 times
Size: 1.38 GB
terms.php

#1

11-Dec-2017 01:20

[Profile]  [PM] 
Display posts:    

You cannot post new topics in this forum
You cannot reply to topics in this forum
You cannot edit your posts in this forum
You cannot delete your posts in this forum
You cannot vote in polls in this forum
You cannot attach files in this forum
You can download files in this forum
User agreement
For copyright holders
Advertise on this site

Скачайте на халяву через торрент на трекере erzsebet.pl

!ATTENTION!
The site does not give electronic versions of products, and is engaged only in a collecting and cataloguing of the references sent and published at a forum by our readers. If you are the legal owner of any submitted material and do not wish that the reference to it was in our catalogue, contact us and we shall immediately remove her. Files for an exchange on tracker are given by users of a site, and the administration does not bear the responsibility for their maintenance. The request to not fill in the files protected by copyrights, and also files of the illegal maintenance!