Приключения Лэсси и Ники / Lassie: The Adventures of Neeka (Джек Б.Хайвли, Дик Модер / Jack B. Hively, Dick Moder) [1968, США, Детский, Приключения, DVB] MVO

DL-List and Torrent activity
Size:  1.71 GB   |    Registered:  2 years 10 months   |    Completed:  16 times
Seeders:  4  
 
   
 
 

Max Levien ®

Longevity:
2 years 10 months
Posts:
20374

[Quote] 

Приключения Лэсси и Ники / Lassie: The Adventures of Neeka- -Страна: США
Жанр: Детский, Приключения
Год выпуска: 1968
Продолжительность: 01:13:17-Перевод: Профессиональный (многоголосый закадровый)
Субтитры: нет
Режиссер: Джек Б.Хайвли, Дик Модер / Jack B. Hively, Dick Moder-В ролях: Джед Аллан, Джон Хармон, Джун Локхарт, Марк Миранда, Роберт Рокуэлл, Хью Рейлли-Описание: Скотт и Лэсси едут навестить старых приятелей, и Лэсси снова встречается со своим маленьким другом Никой. Исследуя местность, Скотт, Ника и Лэсси оказываются в заброшенном шахтерском городке, в котором, по слухам, живут привидения.-Качество видео: TVRip
Формат видео: MPEG2-Видео: MPEG2 Video 768 x 576 (704x576) (4:3) 25.00fps 3111kbps
Аудио: MPEG Audio 48000Hz stereo 192kbps
-

MediaInfo

Видео
Идентификатор : 224 (0xE0)
Формат : MPEG Video
Версия формата : Version 2
Профиль формата : [email protected]
Параметр BVOP формата : Да
Параметр матрицы формата : Выборочная
Продолжительность : 1 ч. 13 м.
Вид битрейта : Переменный
Битрейт : 3079 Кбит/сек
Максимальный битрейт : 3112 Кбит/сек
Ширина : 704 пикс.
Высота : 576 пикс.
Соотношение сторон : 4:3
Частота кадров : 25,000 кадр/сек
Стандарт вещания : PAL
Цветовое пространство : YUV
Подвыборка цветности : 4:2:0
Битовая глубина : 8 бит
Тип развёртки : Чересстрочная
Порядок развёртки : Верхнее поле первое
Метод сжатия : С потерями
Бит/(Пиксели*Кадры) : 0.304
Размер потока : 1,58 Гбайт (92%)
Аудио
Идентификатор : 192 (0xC0)
Формат : MPEG Audio
Версия формата : Version 1
Профиль формата : Layer 2
Продолжительность : 1 ч. 13 м.
Вид битрейта : Постоянный
Битрейт : 192 Кбит/сек
Каналы : 2 канала
Частота : 48,0 КГц
Метод сжатия : С потерями
Размер потока : 101 Мбайт (6%)

Скриншот c названием фильма

If your ratio falls below 0.3, you will not be able to download Torrents! More about the rating.

[erzsebet.pl].t52167.torrent
Torrent: Registered   [ 2017-12-11 02:36 ]

Download .torrent

Download

35 KB

Status: checked
Completed: 16 times
Size: 1.71 GB
terms.php

#1

11-Dec-2017 01:20

[Profile]  [PM] 
Display posts:    

You cannot post new topics in this forum
You cannot reply to topics in this forum
You cannot edit your posts in this forum
You cannot delete your posts in this forum
You cannot vote in polls in this forum
You cannot attach files in this forum
You can download files in this forum
User agreement
For copyright holders
Advertise on this site

Скачайте на халяву через торрент на трекере erzsebet.pl

!ATTENTION!
The site does not give electronic versions of products, and is engaged only in a collecting and cataloguing of the references sent and published at a forum by our readers. If you are the legal owner of any submitted material and do not wish that the reference to it was in our catalogue, contact us and we shall immediately remove her. Files for an exchange on tracker are given by users of a site, and the administration does not bear the responsibility for their maintenance. The request to not fill in the files protected by copyrights, and also files of the illegal maintenance!