Коклюш / Szamárköhögés / Whooping Cough (Петер Гардош / Péter Gárdos) [1987, Венгрия, Драма, DVDRip] VO + Sub Rus + Original

DL-List and Torrent activity
Size:  781 MB   |    Registered:  2 years 10 months   |    Completed:  16 times
Seeders:  3   Leechers:  1   Show peers in full details
 
   
 
 

Max Levien ®

Longevity:
2 years 10 months
Posts:
20374

[Quote] 

Коклюш / Szamárköhögés / Whooping Cough
Страна: Венгрия
Жанр: Драма
Год выпуска: 1987
Продолжительность: 01:26:01
Перевод: Одноголосый закадровый
Субтитры: русские
Оригинальная аудиодорожка: Венгерский
Режиссер: Петер Гардош / Péter Gárdos
В ролях: Мари Тёрёчик, Дежё Гараш, Юдит Хернади, Марселл Тот, Эстер Караз, Анна Фехер, Денеш Уйлаки, Иштван Деги, Золтан Гера, Дьюла Сершен
Описание: История 10-летнего мальчика и его семьи на фоне кровавых событий 1956 года в Будапеште. Дети еще не понимают что происходит, но они счастливы потому-что школы закрыты. Но постепенно к взрослым и детям приходит понимание, что происходит что-то ужасное. .. Исчезают близкие, друзья, некоторых даже убивают, а «советы» посылают армию чтобы подавить контрреволюционный мятеж.
Доп. информация: Фильм взят отсюда http://erzsebet.org/forum/viewtopic.php?t=4471906
Сэмпл: http://multi-up.com/992852
Качество видео: DVDRip
Формат видео: AVI
Видео: 544x384 (1.42:1), 25 fps, XviD build 47 ~997 kbps avg, 0.19 bit/pixel
Аудио 1: 48 kHz, MPEG Layer 3, 2 ch, ~128.00 kbps avg(Русский)
Аудио 2: 48 kHz, MPEG Layer 3, 2 ch, ~128.00 kbps avg(Венгерский)
Формат субтитров: softsub (SRT)
Доп. информация о субтитрах: Русские внешние (Александр Лёвин aka RoaringLion)

MediaInfo

Общее
Полное имя : F:\С моей озвучкой\Коклюш\Whooping Cough.avi
Формат : AVI
Формат/Информация : Audio Video Interleave
Размер файла : 781 Мбайт
Продолжительность : 1 ч. 26 м.
Общий поток : 1269 Кбит/сек
Программа кодирования : VirtualDubModRus 1.5.10.2 (build 2542/release)
Библиотека кодирования : VirtualDubMod build 2542/release
Видео
Идентификатор : 0
Формат : MPEG-4 Visual
Профиль формата : Advanced [email protected]
Параметр BVOP формата : 1
Параметр QPel формата : Нет
Параметр GMC формата : Без точки перехода
Параметр матрицы формата : Default (MPEG)
Идентификатор кодека : XVID
Идентификатор кодека/Подсказка : XviD
Продолжительность : 1 ч. 26 м.
Битрейт : 998 Кбит/сек
Ширина : 544 пикселя
Высота : 384 пикселя
Соотношение сторон : 1,417
Частота кадров : 25,000 кадров/сек
Цветовое пространство : YUV
Субдискретизация насыщенности : 4:2:0
Битовая глубина : 8 бит
Тип развёртки : Прогрессивная
Метод сжатия : С потерями
Бит/(Пиксели*Кадры) : 0.191
Размер потока : 614 Мбайт (79%)
Библиотека кодирования : XviD 1.2.0.dev47 (UTC 2006-11-01)
Аудио #1
Идентификатор : 1
Формат : MPEG Audio
Версия формата : Version 1
Профиль формата : Layer 3
Режим : Joint stereo
Расширение режима : MS Stereo
Идентификатор кодека : 55
Идентификатор кодека/Подсказка : MP3
Продолжительность : 1 ч. 26 м.
Вид битрейта : Постоянный
Битрейт : 128 Кбит/сек
Каналы : 2 канала
Частота : 48,0 КГц
Метод сжатия : С потерями
Размер потока : 78,8 Мбайт (10%)
Выравнивание : Соединение по промежуткам
Продолжительность промежутка : 40 мс. (1,00 видеокадр)
Время предзагрузки промежутка : 504 мс.
Библиотека кодирования : LAME3.96
Аудио #2
Идентификатор : 2
Формат : MPEG Audio
Версия формата : Version 1
Профиль формата : Layer 3
Режим : Joint stereo
Расширение режима : MS Stereo
Идентификатор кодека : 55
Идентификатор кодека/Подсказка : MP3
Продолжительность : 1 ч. 26 м.
Вид битрейта : Постоянный
Битрейт : 128 Кбит/сек
Каналы : 2 канала
Частота : 48,0 КГц
Метод сжатия : С потерями
Размер потока : 78,8 Мбайт (10%)
Выравнивание : Соединение по промежуткам
Продолжительность промежутка : 40 мс. (1,00 видеокадр)
Время предзагрузки промежутка : 504 мс.
Библиотека кодирования : LAME3.97
Настройки программы : -m j -V 4 -q 2 -lowpass 17 -b 128

Скриншоты

If your ratio falls below 0.3, you will not be able to download Torrents! More about the rating.

[erzsebet.pl].t52171.torrent
Torrent: Registered   [ 2017-12-11 02:36 ]

Download .torrent

Download

16 KB

Status: checked
Completed: 16 times
Size: 781 MB
terms.php

#1

11-Dec-2017 01:20

[Profile]  [PM] 
Display posts:    

You cannot post new topics in this forum
You cannot reply to topics in this forum
You cannot edit your posts in this forum
You cannot delete your posts in this forum
You cannot vote in polls in this forum
You cannot attach files in this forum
You can download files in this forum
User agreement
For copyright holders
Advertise on this site

Скачайте на халяву через торрент на трекере erzsebet.pl

!ATTENTION!
The site does not give electronic versions of products, and is engaged only in a collecting and cataloguing of the references sent and published at a forum by our readers. If you are the legal owner of any submitted material and do not wish that the reference to it was in our catalogue, contact us and we shall immediately remove her. Files for an exchange on tracker are given by users of a site, and the administration does not bear the responsibility for their maintenance. The request to not fill in the files protected by copyrights, and also files of the illegal maintenance!