Том и Лола / Tom et Lola (Бертран Артюи / Bertrand Arthuys) [1990, Франция, драма, DVDRip] VO

DL-List and Torrent activity
Size:  1.46 GB   |    Registered:  2 years 10 months   |    Completed:  16 times
Seeders:  2  
 
   
 
 

Max Levien ®

Longevity:
2 years 10 months
Posts:
20374

[Quote] 

Том и Лола / Tom et Lola
Страна: Франция
Жанр: драма
Год выпуска: 1990
Продолжительность: 01:34:10
Перевод: Одноголосый закадровый
Субтитры: нет
Режиссер: Бертран Артюи / Bertrand Arthuys
В ролях: Сесиль Манье, Марк Берман, Катрин Фро, Селиан Варини, Нил Стаббс, Мелоди Колин, Софи Артюи, Оливье Белмонт, Надя Шапюи, Эдуард Декен
Описание: История двоих обреченных детей Тома и Лолы, иммунные системы которых повреждены, и они вынуждены большую часть времени проводить в индивидуальных изолированных пластиковых сферах. Одежда им противопоказана. Но изоляция и условия пребывания в лечебном учреждении не могут запретить общения и соблазнительного духа сверхествественного обояния отношений мальчика и девочки. Дети сбегают, встречаются с другими детьми. Играя вместе, они забывают о своем недуге. И у них есть мечта - увидеть Аляску...
Доп. информация: Rip by AndreSweet
Сэмпл: http://multi-up.com/994196
Качество видео: DVDRip
Формат видео: AVI
Видео: DivX, 720х432, 2017 кбит/с, 25 fps
Аудио: AC3, 192 кбит/с, 2 ch, 48 КГц

MediaInfo

Общее
Полное имя : D:\Tom.et.Lola_1990.DVDRip.avi
Формат : AVI
Формат/Информация : Audio Video Interleave
Размер файла : 1,46 Гбайт
Продолжительность : 1 ч. 34 м.
Общий поток : 2219 Кбит/сек
Режиссёр : Rip by AndreSweet
Программа кодирования : VirtualDubModRus 1.5.10.2 (build 2542/release)
Библиотека кодирования : VirtualDubMod build 2542/release
Видео
Идентификатор : 0
Формат : MPEG-4 Visual
Профиль формата : Advanced [email protected]
Параметр BVOP формата : 1
Параметр QPel формата : Нет
Параметр GMC формата : Без точки перехода
Параметр матрицы формата : Default (MPEG)
Идентификатор кодека : DX50
Идентификатор кодека/Подсказка : DivX 5
Продолжительность : 1 ч. 34 м.
Битрейт : 2017 Кбит/сек
Ширина : 720 пикселей
Высота : 432 пикселя
Соотношение сторон : 1,667
Частота кадров : 25,000 кадров/сек
Цветовое пространство : YUV
Субдискретизация насыщенности : 4:2:0
Битовая глубина : 8 бит
Тип развёртки : Прогрессивная
Метод сжатия : С потерями
Бит/(Пиксели*Кадры) : 0.259
Размер потока : 1,33 Гбайт (91%)
Библиотека кодирования : XviD 1.2.1 (UTC 2008-12-04)
Аудио
Идентификатор : 1
Формат : AC-3
Формат/Информация : Audio Coding 3
Расширение режима : CM (complete main)
Параметр Endianness формата : Big
Идентификатор кодека : 2000
Продолжительность : 1 ч. 34 м.
Вид битрейта : Постоянный
Битрейт : 192 Кбит/сек
Каналы : 2 канала
Расположение каналов : Front: L R
Частота : 48,0 КГц
Битовая глубина : 16 бит
Метод сжатия : С потерями
Размер потока : 129 Мбайт (9%)
Выравнивание : Разделение по промежуткам
Продолжительность промежутка : 40 мс. (1,00 видеокадр)
Время предзагрузки промежутка : 500 мс.

Скриншот c названием фильма

Скриншоты

If your ratio falls below 0.3, you will not be able to download Torrents! More about the rating.

[erzsebet.pl].t52172.torrent
Torrent: Registered   [ 2017-12-11 02:36 ]

Download .torrent

Download

15 KB

Status: checked
Completed: 16 times
Size: 1.46 GB
terms.php

#1

11-Dec-2017 01:20

[Profile]  [PM] 
Display posts:    

You cannot post new topics in this forum
You cannot reply to topics in this forum
You cannot edit your posts in this forum
You cannot delete your posts in this forum
You cannot vote in polls in this forum
You cannot attach files in this forum
You can download files in this forum
User agreement
For copyright holders
Advertise on this site

Скачайте на халяву через торрент на трекере erzsebet.pl

!ATTENTION!
The site does not give electronic versions of products, and is engaged only in a collecting and cataloguing of the references sent and published at a forum by our readers. If you are the legal owner of any submitted material and do not wish that the reference to it was in our catalogue, contact us and we shall immediately remove her. Files for an exchange on tracker are given by users of a site, and the administration does not bear the responsibility for their maintenance. The request to not fill in the files protected by copyrights, and also files of the illegal maintenance!