Месть девочек из группы поддержки / Revenge of the cheerleaders (Ричард Лернер / Richard Lerner) [1976, США, комедия, спорт, DVDRip] AVO Дольский

DL-List and Torrent activity
Size:  825 MB   |    Registered:  2 years 10 months   |    Completed:  16 times
Seeders:  3  
 
   
 
 

Max Levien ®

Longevity:
2 years 10 months
Posts:
20374

[Quote] 

Месть девочек из группы поддержки / Revenge of the cheerleaders
Страна: США
Жанр: комедия, спорт
Год выпуска: 1976
Продолжительность: 01:26:53
Перевод: Авторский (одноголосый закадровый) Дольский
Субтитры: нет
Режиссер: Ричард Лернер / Richard Lerner
В ролях: Джери Вудс, Шерил Смит, Хелен Лэнг, Патрис Рохмер, Сьюзи Елена
Описание: Продолжение приключений девушек из группы поддержки учащихся в школе и активно болеющих за местных ребят.
Сэмпл: http://narod.ru/disk/41869605001.d28fe3483eedd18c8d3a733e2d506897/cheerl.avi.html
Качество видео: DVDRip
Формат видео: AVI
Видео: 560x304 (1.84:1),560x304 (1.84:1),XviD MPEG-4,1126 kbps avg
Аудио: 48 kHz,AC3 Dolby Digital,2/0 (L,R) ch,192.00 kbps avg

MediaInfo

Полное имя : C:\кино\Месть.avi
Формат : AVI
Формат/Информация : Audio Video Interleave
Размер файла : 825 Мбайт
Продолжительность : 1 ч. 26 м.
Общий поток : 1328 Кбит/сек
Программа кодирования : VirtualDubMod 1.5.10.2 (build 2540/release)
Библиотека кодирования : VirtualDubMod build 2540/release
Видео
Идентификатор : 0
Формат : MPEG-4 Visual
Профиль формата : Advanced [email protected]
Параметр BVOP формата : 1
Параметр QPel формата : Нет
Параметр GMC формата : Без точки перехода
Параметр матрицы формата : Выборочная
Идентификатор кодека : XVID
Идентификатор кодека/Подсказка : XviD
Продолжительность : 1 ч. 26 м.
Битрейт : 1127 Кбит/сек
Ширина : 560 пикселей
Высота : 304 пикселя
Соотношение сторон : 16:9
Частота кадров : 23,976 кадра/сек
Цветовое пространство : YUV
Субдискретизация насыщенности : 4:2:0
Битовая глубина : 8 бит
Тип развёртки : Прогрессивная
Метод сжатия : С потерями
Бит/(Пиксели*Кадры) : 0.276
Размер потока : 700 Мбайт (85%)
Библиотека кодирования : XviD 64
Аудио
Идентификатор : 1
Формат : AC-3
Формат/Информация : Audio Coding 3
Расширение режима : CM (complete main)
Идентификатор кодека : 2000
Продолжительность : 1 ч. 26 м.
Вид битрейта : Постоянный
Битрейт : 192 Кбит/сек
Каналы : 2 канала
Расположение каналов : Front: L R
Частота : 48,0 КГц
Битовая глубина : 16 бит
Метод сжатия : С потерями
Размер потока : 119 Мбайт (14%)
Выравнивание : Разделение по промежуткам
Продолжительность промежутка : 42 мс. (1,00 видеокадр)
Время предзагрузки промежутка : 500 мс.

Скриншот c названием фильма

Скриншоты

If your ratio falls below 0.3, you will not be able to download Torrents! More about the rating.

[erzsebet.pl].t52174.torrent
Torrent: Registered   [ 2017-12-11 02:36 ]

Download .torrent

Download

17 KB

Status: checked
Completed: 16 times
Size: 825 MB
terms.php

#1

11-Dec-2017 01:20

[Profile]  [PM] 
Display posts:    

You cannot post new topics in this forum
You cannot reply to topics in this forum
You cannot edit your posts in this forum
You cannot delete your posts in this forum
You cannot vote in polls in this forum
You cannot attach files in this forum
You can download files in this forum
User agreement
For copyright holders
Advertise on this site

Скачайте на халяву через торрент на трекере erzsebet.pl

!ATTENTION!
The site does not give electronic versions of products, and is engaged only in a collecting and cataloguing of the references sent and published at a forum by our readers. If you are the legal owner of any submitted material and do not wish that the reference to it was in our catalogue, contact us and we shall immediately remove her. Files for an exchange on tracker are given by users of a site, and the administration does not bear the responsibility for their maintenance. The request to not fill in the files protected by copyrights, and also files of the illegal maintenance!