Вертихвостки / Hardbodies (Марк Гриффитс / Mark Griffiths) [1984, США, Молодежная комедия, DVDRip], DVO

DL-List and Torrent activity
Size:  745 MB   |    Registered:  2 years 10 months   |    Completed:  16 times
Seeders:  2  
 
   
 
 

Max Levien ®

Longevity:
2 years 10 months
Posts:
20374

[Quote] 

Вертихвостки / Hardbodies
Год выпуска: 1984
Страна: США
Жанр: Молодежная комедия
Продолжительность: 01:26:49.120 (124894 frames)
Перевод: Профессиональный (двухголосый, закадровый) - СТС
Русские субтитры: нет
Режиссер: Марк Гриффитс / Mark Griffiths
В ролях: Грант Крамер, Тил Робертс, Гари Вуд, Michael Rapport, Сорреллс Пиккард, Роберта Коллинз, Синди Сильвер, Кортни Гейнс, Кристи Сомерс, Кристал Шоу
Описание: Трое немолодых мужчин отправляются отдыхать на побережье Калифорнии. Вскоре они понимают, что хорошего отеля и кабриолета недостаточно, чтобы пользоваться успехом у девушек. Тогда друзья нанимают смазливого студента, который берется помочь им вернуть форму.
Качество: DVDRip
Формат: AVI
Видео кодек: XviD
Аудио кодек: MP3
Видео: 672x320 (2.10:1), 23.976 fps, XviD MPEG-4 ~1061 kbps avg, 0.21 bit/pixel
Аудио: 48 kHz, MPEG Layer 3, 2 ch, ~128.00 kbps avg

Медиаинфо

General
Complete name : K:\001 МОИ РАЗДАЧИ\Вертихвостки 745\vertihvostki_745_[torrents.ru]_by_bm11.avi
Format : AVI
Format/Info : Audio Video Interleave
File size : 745 MiB
Duration : 1h 26mn
Overall bit rate : 1 199 Kbps
Writing application : VirtualDubMod 1.5.10.2 (build 2540/release)
Writing library : VirtualDubMod build 2540/release
Video
Format : MPEG-4 Visual
Format profile : Streaming [email protected]
Format settings, BVOP : Yes
Format settings, QPel : No
Format settings, GMC : No warppoints
Format settings, Matrix : Default
Muxing mode : Packed bitstream
Codec ID : XVID
Codec ID/Hint : XviD
Duration : 1h 26mn
Bit rate : 1 062 Kbps
Width : 672 pixels
Height : 320 pixels
Display aspect ratio : 2.100
Frame rate : 23.976 fps
Resolution : 24 bits
Colorimetry : 4:2:0
Scan type : Progressive
Bits/(Pixel*Frame) : 0.206
Stream size : 659 MiB (89%)
Writing library : XviD 50
Audio
Format : MPEG Audio
Format version : Version 1
Format profile : Layer 3
Codec ID : 55
Codec ID/Hint : MP3
Duration : 1h 26mn
Bit rate mode : Constant
Bit rate : 128 Kbps
Channel(s) : 2 channels
Sampling rate : 48.0 KHz
Resolution : 16 bits
Stream size : 79.4 MiB (11%)
Alignment : Aligned on interleaves
Interleave, duration : 42 ms (1.00 video frame)
Interleave, preload duration : 504 ms
Релиз группы:
--

If your ratio falls below 0.3, you will not be able to download Torrents! More about the rating.

[erzsebet.pl].t52178.torrent
Torrent: Registered   [ 2017-12-11 02:36 ]

Download .torrent

Download

15 KB

Status: checked
Completed: 16 times
Size: 745 MB
terms.php

#1

11-Dec-2017 01:20

[Profile]  [PM] 
Display posts:    

You cannot post new topics in this forum
You cannot reply to topics in this forum
You cannot edit your posts in this forum
You cannot delete your posts in this forum
You cannot vote in polls in this forum
You cannot attach files in this forum
You can download files in this forum
User agreement
For copyright holders
Advertise on this site

Скачайте на халяву через торрент на трекере erzsebet.pl

!ATTENTION!
The site does not give electronic versions of products, and is engaged only in a collecting and cataloguing of the references sent and published at a forum by our readers. If you are the legal owner of any submitted material and do not wish that the reference to it was in our catalogue, contact us and we shall immediately remove her. Files for an exchange on tracker are given by users of a site, and the administration does not bear the responsibility for their maintenance. The request to not fill in the files protected by copyrights, and also files of the illegal maintenance!