Класс / Class (Льюис Джон Карлино / Lewis John Carlino) [1983, США, комедия, мелодрама, BDRip-AVC] 2хDVO (ЕА, НТВ+) + Original Eng + Sub (Rus, Eng)

DL-List and Torrent activity
Size:  2.24 GB   |    Registered:  2 years 10 months   |    Completed:  16 times
Seeders:  2  
 
   
 
 

Max Levien ®

Longevity:
2 years 10 months
Posts:
20374

[Quote] 

Класс / Class- Страна: США
Жанр: комедия, мелодрама
Год выпуска: 1983
Продолжительность: 01:38:30
Перевод 1: Профессиональный (двухголосый закадровый) НТВ+
Перевод 2: Профессиональный (двухголосый закадровый) Екатеринбург Арт
Субтитры: русские, английские
Оригинальная аудиодорожка: английский
Режиссер: Льюис Джон Карлино / Lewis John Carlino
В ролях: Жаклин Биссет, Роб Лоу, Эндрю МакКарти, Клифф Робертсон, Стюарт Марголин, Джон Кьюсак, Алан Рак, Родни Пирсон, Римэк Рамсей, Вирджиния Мэдсен
Описание: Старшеклассник Джонатан поступает в престижную частную школу. Веселые приколы и розыгрыши делают Джонатана и его соседа по комнате Скипа друзьями. И стоит только Джонатану признаться, что он еще девственник, Скип организует свидание с двумя ученицами женской школы. Но Джонатан напивается и на редкость неуклюже ведет себя на вечеринке. Тогда Скип отправляет его в Чикаго, дав адреса нескольких злачных мест, и Джонатан знакомится с эффектной 38-летней женщиной Эллен. Они занимаются любовью в лифте, а затем перебираются в мотель, где проводят несколько наполненных страстью дней. Но Эллен узнает, что Джонатан еще школьник, и исчезает. Скип приглашает расстроенного Джонатана провести каникулы в загородном доме своих родителей и знакомит с матерью, которой оказывается… Эллен!
Сэмпл: http://sendfile.su/1325033

Качество видео: BDRip-AVC (CLASS_1983_REMUX_HDCLUB)
Формат видео: MKV
Видео: x264, 912x494 (1.85:1) 23,976 fps, ~2675 kbps, 0,248 bit/pixel
Аудио 1: 48 kHz, AC3 Dolby Digital, 2/0 (L,R), ~192 kbps | НТВ+
Аудио 2: 48 kHz, AC3 Dolby Digital, 2/0 (L,R), ~192 kbps | Екатеринбург Арт
Аудио 3: 48 kHz, AC3 Dolby Digital, 2/0 (L,R), ~192 kbps | Английский
---------------------------------------отдельно тут---------------------------------------------------
Аудио 4: 48 kHz, AC3 Dolby Digital, 2/0 (L,R), ~192 kbps | Михалев
Аудио 5: 48 kHz, AC3 Dolby Digital, 2/0 (L,R), ~192 kbps | Володарский
Формат субтитров: softsub (SRT)

MediaInfo

General
Unique ID : 220792173051431451863752971652033874415 (0xA61B0697FC2D286D852FD3246A6709EF)
Format : Matroska
Format version : Version 4 / Version 2
File size : 2.24 GiB
Duration : 1h 38mn
Overall bit rate : 3 253 Kbps
Encoded date : UTC 2017-04-07 07:59:57
Writing application : mkvmerge v10.0.0 ('To Drown In You') 64bit
Writing library : libebml v1.3.4 + libmatroska v1.4.5
Video #1
ID : 1
Format : AVC
Format/Info : Advanced Video Codec
Format profile : [email protected]
Format settings, CABAC : Yes
Format settings, ReFrames : 10 frames
Codec ID : V_MPEG4/ISO/AVC
Duration : 1h 38mn
Bit rate : 2 675 Kbps
Width : 912 pixels
Height : 494 pixels
Display aspect ratio : 1.85:1
Frame rate mode : Constant
Frame rate : 23.976 (24000/1001) fps
Color space : YUV
Chroma subsampling : 4:2:0
Bit depth : 8 bits
Scan type : Progressive
Bits/(Pixel*Frame) : 0.248
Stream size : 1.84 GiB (82%)
Writing library : x264 core 148 r2638 7599210
Encoding settings : cabac=1 / ref=10 / deblock=1:-3:-2 / analyse=0x3:0x133 / me=umh / subme=10 / psy=1 / psy_rd=1.00:0.00 / mixed_ref=1 / me_range=32 / chroma_me=1 / trellis=2 / 8x8dct=1 / cqm=0 / deadzone=21,11 / fast_pskip=0 / chroma_qp_offset=-2 / threads=6 / lookahead_threads=1 / sliced_threads=0 / nr=0 / decimate=1 / interlaced=0 / bluray_compat=0 / constrained_intra=0 / bframes=9 / b_pyramid=2 / b_adapt=2 / b_bias=0 / direct=1 / weightb=1 / open_gop=0 / weightp=2 / keyint=250 / keyint_min=23 / scenecut=40 / intra_refresh=0 / rc=crf / mbtree=0 / crf=19.7 / qcomp=0.65 / qpmin=0 / qpmax=69 / qpstep=4 / ip_ratio=1.40 / pb_ratio=1.30 / aq=3:0.90
Language : English
Default : Yes
Forced : No
Audio #2
ID : 2
Format : AC-3
Format/Info : Audio Coding 3
Mode extension : CM (complete main)
Format settings, Endianness : Big
Codec ID : A_AC3
Duration : 1h 38mn
Bit rate mode : Constant
Bit rate : 192 Kbps
Channel(s) : 2 channels
Channel positions : Front: L R
Sampling rate : 48.0 KHz
Frame rate : 31.250 fps (1536 spf)
Compression mode : Lossy
Stream size : 135 MiB (6%)
Title : НТВ+
Language : Russian
Default : Yes
Forced : No
Audio #3
ID : 3
Format : AC-3
Format/Info : Audio Coding 3
Mode extension : CM (complete main)
Format settings, Endianness : Big
Codec ID : A_AC3
Duration : 1h 38mn
Bit rate mode : Constant
Bit rate : 192 Kbps
Channel(s) : 2 channels
Channel positions : Front: L R
Sampling rate : 48.0 KHz
Frame rate : 31.250 fps (1536 spf)
Compression mode : Lossy
Stream size : 135 MiB (6%)
Title : Екатеринбург Арт
Language : Russian
Default : No
Forced : No
Audio #4
ID : 4
Format : AC-3
Format/Info : Audio Coding 3
Mode extension : CM (complete main)
Format settings, Endianness : Big
Codec ID : A_AC3
Duration : 1h 38mn
Bit rate mode : Constant
Bit rate : 192 Kbps
Channel(s) : 2 channels
Channel positions : Front: L R
Sampling rate : 48.0 KHz
Frame rate : 31.250 fps (1536 spf)
Compression mode : Lossy
Stream size : 135 MiB (6%)
Language : English
Default : No
Forced : No
Text #5
ID : 5
Format : UTF-8
Codec ID : S_TEXT/UTF8
Codec ID/Info : UTF-8 Plain Text
Duration : 1h 34mn
Bit rate : 89 bps
Count of elements : 859
Stream size : 62.1 KiB (0%)
Language : Russian
Default : No
Forced : No
Text #6
ID : 6
Format : UTF-8
Codec ID : S_TEXT/UTF8
Codec ID/Info : UTF-8 Plain Text
Duration : 1h 34mn
Bit rate : 55 bps
Count of elements : 1033
Stream size : 38.4 KiB (0%)
Language : English
Default : No
Forced : No

лог

raw [info]: 912x494p 1:1 @ 24000/1001 fps (cfr)
x264 [info]: using SAR=1/1
x264 [info]: using cpu capabilities: MMX2 SSE2Fast SSSE3 SSE4.2 AVX XOP FMA4 FMA3 LZCNT BMI1
x264 [info]: profile High, level 4.1
x264 [info]: frame I:978 Avg QP:18.60 size: 58694
x264 [info]: frame P:26515 Avg QP:20.02 size: 25025
x264 [info]: frame B:114227 Avg QP:22.08 size: 10989
x264 [info]: consecutive B-frames: 1.1% 1.2% 3.0% 16.3% 11.0% 46.0% 12.6% 4.1% 3.1% 1.8%
x264 [info]: mb I I16..4: 2.8% 86.4% 10.8%
x264 [info]: mb P I16..4: 0.4% 13.5% 1.2% P16..4: 38.5% 25.6% 16.9% 0.3% 0.1% skip: 3.5%
x264 [info]: mb B I16..4: 0.0% 1.5% 0.1% B16..8: 42.9% 13.4% 4.0% direct: 8.6% skip:29.5% L0:45.0% L1:45.6% BI: 9.4%
x264 [info]: 8x8 transform intra:90.1% inter:63.2%
x264 [info]: coded y,uvDC,uvAC intra: 95.8% 78.6% 44.2% inter: 39.9% 19.6% 1.0%
x264 [info]: i16 v,h,dc,p: 37% 14% 11% 38%
x264 [info]: i8 v,h,dc,ddl,ddr,vr,hd,vl,hu: 9% 7% 8% 11% 15% 14% 13% 12% 12%
x264 [info]: i4 v,h,dc,ddl,ddr,vr,hd,vl,hu: 9% 6% 2% 10% 17% 17% 15% 13% 13%
x264 [info]: i8c dc,h,v,p: 39% 24% 21% 17%
x264 [info]: Weighted P-Frames: Y:13.2% UV:6.9%
x264 [info]: ref P L0: 39.0% 11.5% 18.0% 7.6% 6.6% 4.9% 4.5% 2.6% 2.5% 2.3% 0.3% 0.0%
x264 [info]: ref B L0: 68.0% 12.2% 6.9% 3.8% 3.1% 2.6% 2.1% 0.9% 0.4%
x264 [info]: ref B L1: 91.1% 8.9%
x264 [info]: kb/s:2674.64
x264 [total]: encoded 141720 frames, 7.17 fps, 2674.64 kb/s

Скриншоты


If your ratio falls below 0.3, you will not be able to download Torrents! More about the rating.

[erzsebet.pl].t52179.torrent
Torrent: Registered   [ 2017-12-11 02:36 ]

Download .torrent

Download

12 KB

Status: checked
Completed: 16 times
Size: 2.24 GB
terms.php

#1

11-Dec-2017 01:19

[Profile]  [PM] 
Display posts:    

You cannot post new topics in this forum
You cannot reply to topics in this forum
You cannot edit your posts in this forum
You cannot delete your posts in this forum
You cannot vote in polls in this forum
You cannot attach files in this forum
You can download files in this forum
User agreement
For copyright holders
Advertise on this site

Скачайте на халяву через торрент на трекере erzsebet.pl

!ATTENTION!
The site does not give electronic versions of products, and is engaged only in a collecting and cataloguing of the references sent and published at a forum by our readers. If you are the legal owner of any submitted material and do not wish that the reference to it was in our catalogue, contact us and we shall immediately remove her. Files for an exchange on tracker are given by users of a site, and the administration does not bear the responsibility for their maintenance. The request to not fill in the files protected by copyrights, and also files of the illegal maintenance!