Звездный путь 3: В поисках Спока / Star Trek III: The Search for Spock (Леонард Нимой / Leonard Nimoy) [1984, США, Фантастика, DVDRip] MVO Mystery Film

DL-List and Torrent activity
Size:  698 MB   |    Registered:  2 years 10 months   |    Completed:  16 times
Seeders:  2  
 
   
 
 

Max Levien ®

Longevity:
2 years 10 months
Posts:
20374

[Quote] 

Звездный путь 3: В поисках Спока / Star Trek III: The Search for Spock- Страна: США
Жанр: Фантастика
Год выпуска: 1984
Продолжительность: 1:45:12
Перевод: Любительский (многоголосый закадровый) [url=http:// СПАМ] [/url]
Субтитры: нет-Режиссер: Леонард Нимой / Leonard Nimoy-В ролях: Уильям Шэтнер, Леонард Нимой, ДеФорест Келли, Джеймс Дуэн, Джордж Такей, Уолтер Кениг, Нишелль Николс, Мерритт Бутрик, Фил Моррис, Скотт Макгиннис-Описание: Поражение Хана и создание планеты Генезис стали очередным триумфом капитана Джеймса Т. Кирка; но для него эти победы больше не имеют значения. Кирк потерял одного из своих лучших друзей, Спока, который погиб, спасая «Энтерпрайз», и эта потеря невосполнима.
Одновременно с этим Кирк близок к тому, чтобы потерять еще одного своего лучшего друга, Мак-Коя, который потерял рассудок.
Неожиданный визит Сарека, отца Спока, проясняет ситуацию и дает Кирку надежду — Спок жив, и его разум в данный момент помещен в тело Мак-Коя. Чтобы помочь друзьям, Кирк угоняет свой корабль, к тому времени уже предназначенный на слом, и нарушает установленный Федерацией карантин на планете Генезис, на которой работает научная экспедиция во главе с его сыном Дэвидом.
Но в это же время о существовании Генезиса узнают Клингоны, и их боевой корабль под управлением командира Круга спешно направляется к планете Генезис. Их встреча неизбежна…-Озвучка: Александр Андреев, Іван Павленко, Алексей Темнов, Марина Netlife
Монтаж и сведение звука: Hedgehog-[url=tracker.php?nm=star trek III]Ссылка на предыдущие и альтернативные раздачи[/url] / [url=http:// СПАМ-Качество видео:DVDRip
Формат видео: AVI
Видео: 640x272 (2.35:1), 23.976 fps, XviD Final 1.0.3 (build 37) ~790 kbps avg, 0.19 bit/pixel
Аудио: 44.100 kHz, MPEG Layer 3, 2 ch, ~128.00 kbps avg-

Отчёт MediaInfo

Format : AVI
Format/Info : Audio Video Interleave
File size : 698 MiB
Duration : 1h 45mn
Overall bit rate : 928 Kbps
Writing application : VirtualDubMod 1.5.10.2 (build 2540/release)
Writing library : VirtualDubMod build 2540/release
Video
ID : 0
Format : MPEG-4 Visual
Format profile : Advanced [email protected]
Format settings, BVOP : Yes
Format settings, QPel : No
Format settings, GMC : No warppoints
Format settings, Matrix : Default (H.263)
Codec ID : XVID
Codec ID/Hint : XviD
Duration : 1h 45mn
Bit rate : 790 Kbps
Width : 640 pixels
Height : 272 pixels
Display aspect ratio : 2.35:1
Frame rate : 23.976 fps
Color space : YUV
Chroma subsampling : 4:2:0
Bit depth : 8 bits
Scan type : Progressive
Bits/(Pixel*Frame) : 0.189
Stream size : 595 MiB (85%)
Writing library : XviD 1.0.3 (UTC 2004-12-20)
Audio
ID : 1
Format : MPEG Audio
Format version : Version 1
Format profile : Layer 3
Mode : Joint stereo
Mode extension : MS Stereo
Codec ID : 55
Codec ID/Hint : MP3
Duration : 1h 45mn
Bit rate mode : Constant
Bit rate : 128 Kbps
Channel(s) : 2 channels
Sampling rate : 44.1 KHz
Stream size : 96.3 MiB (14%)
Alignment : Split accross interleaves
Interleave, duration : 42 ms (1.00 video frame)
Interleave, preload duration : 500 ms
Writing library : LAME3.98.2ЄЄЄЄЄЄЄЄЄЄ

Скриншот c названием фильма

Скриншоты

If your ratio falls below 0.3, you will not be able to download Torrents! More about the rating.

[erzsebet.pl].t52180.torrent
Torrent: Registered   [ 2017-12-11 02:36 ]

Download .torrent

Download

14 KB

Status: checked
Completed: 16 times
Size: 698 MB
terms.php

#1

11-Dec-2017 01:19

[Profile]  [PM] 
Display posts:    

You cannot post new topics in this forum
You cannot reply to topics in this forum
You cannot edit your posts in this forum
You cannot delete your posts in this forum
You cannot vote in polls in this forum
You cannot attach files in this forum
You can download files in this forum
User agreement
For copyright holders
Advertise on this site

Скачайте на халяву через торрент на трекере erzsebet.pl

!ATTENTION!
The site does not give electronic versions of products, and is engaged only in a collecting and cataloguing of the references sent and published at a forum by our readers. If you are the legal owner of any submitted material and do not wish that the reference to it was in our catalogue, contact us and we shall immediately remove her. Files for an exchange on tracker are given by users of a site, and the administration does not bear the responsibility for their maintenance. The request to not fill in the files protected by copyrights, and also files of the illegal maintenance!