Американская мечтательница / American Dreamer (Рик Розенталь / Rick Rosenthal) [1984, США, комедия, приключения, DVDRip-AVC] Original Eng + Sub Rus, Eng

DL-List and Torrent activity
Size:  2.09 GB   |    Registered:  2 years 10 months   |    Completed:  16 times
Seeders:  4  
 
   
 
 

Max Levien ®

Longevity:
2 years 10 months
Posts:
20374

[Quote] 

Американская мечтательница / American Dreamer
Страна: США
Жанр: комедия, приключения
Год выпуска: 1984
Продолжительность: 01:44:59
Перевод: Субтитры
Субтитры: русские, английские
Оригинальная аудиодорожка: английский
Режиссер: Рик Розенталь / Rick Rosenthal
В ролях: ДжоБет Уильямс, Том Конти, Джанкарло Джаннини, Корэл Браун, Джеймс Стейли, Кристофер Дэниэл Барнс, Хаклберри Фокс, Жан Ружери, Пьер Сантини, Леон Зитрон
Описание: Кэти Палмер – обычная домохозяйка и страстная поклонница шпионских романов. Выиграв на конкурсе начинающих писателей поездку в Париж, она и представить себе не могла, что ей предстоит попасть в аварию, потерять память и перевоплотиться в образ любимой героини – бесстрашной и очаровательной Ребекки Райан.

Сэмпл: https://yadi.sk/i/yimE5LDIkCjUi
Качество видео: DVDRip-AVC
Формат видео: MKV
Видео: AVC, [email protected], 16:9, 23.976 fps, 2400 kbps
Аудио: AC3, 5.1, 48 kHz, 448 kbps
Формат субтитров: softsub (SRT)

MediaInfo

General
Unique ID : 242976987313579882638289165080253622705 (0xB6CBAA628FA03DD7B9025ADF7B6EE9B1)
Complete name : Американская мечтательница [1984].mkv
Format : Matroska
Format version : Version 4 / Version 2
File size : 2.09 GiB
Duration : 1h 44mn
Overall bit rate : 2 849 Kbps
Encoded date : UTC 2015-11-03 02:10:18
Writing application : mkvmerge v8.5.1 ('Where you lead I will follow') 64bit
Writing library : libebml v1.3.3 + libmatroska v1.4.4
Video
ID : 1
Format : AVC
Format/Info : Advanced Video Codec
Format profile : [email protected]
Format settings, CABAC : Yes
Format settings, ReFrames : 16 frames
Codec ID : V_MPEG4/ISO/AVC
Duration : 1h 44mn
Bit rate : 2 400 Kbps
Width : 720 pixels
Height : 480 pixels
Display aspect ratio : 16:9
Original display aspect rat : 3:2
Frame rate mode : Constant
Frame rate : 23.976 fps
Color space : YUV
Chroma subsampling : 4:2:0
Bit depth : 8 bits
Scan type : Progressive
Bits/(Pixel*Frame) : 0.290
Stream size : 1.72 GiB (82%)
Writing library : x264 core 130 r2274bm c832fe9
Encoding settings : cabac=1 / ref=16 / deblock=1:-1:-1 / analyse=0x3:0x133 / me=umh / subme=10 / psy=1 / psy_rd=1.00:0.15 / mixed_ref=1 / me_range=24 / chroma_me=1 / trellis=2 / 8x8dct=1 / cqm=0 / deadzone=21,11 / fast_pskip=1 / chroma_qp_offset=-3 / threads=12 / lookahead_threads=2 / sliced_threads=0 / nr=0 / decimate=1 / interlaced=0 / bluray_compat=0 / constrained_intra=0 / bframes=8 / b_pyramid=2 / b_adapt=2 / b_bias=0 / direct=3 / weightb=1 / open_gop=0 / weightp=2 / keyint=250 / keyint_min=23 / scenecut=40 / intra_refresh=0 / rc_lookahead=60 / rc=2pass / mbtree=1 / bitrate=2400 / ratetol=1.0 / qcomp=0.60 / qpmin=0 / qpmax=69 / qpstep=4 / cplxblur=20.0 / qblur=0.5 / ip_ratio=1.40 / aq=1:1.00
Language : English
Default : Yes
Forced : No
Audio
ID : 2
Format : AC-3
Format/Info : Audio Coding 3
Mode extension : CM (complete main)
Format settings, Endianness : Big
Codec ID : A_AC3
Duration : 1h 44mn
Bit rate mode : Constant
Bit rate : 448 Kbps
Channel(s) : 6 channels
Channel positions : Front: L C R, Side: L R, LFE
Sampling rate : 48.0 KHz
Compression mode : Lossy
Stream size : 336 MiB (16%)
Language : English
Default : Yes
Forced : No
Text #1
ID : 3
Format : UTF-8
Codec ID : S_TEXT/UTF8
Codec ID/Info : UTF-8 Plain Text
Language : Russian
Default : Yes
Forced : No
Text #2
ID : 4
Format : UTF-8
Codec ID : S_TEXT/UTF8
Codec ID/Info : UTF-8 Plain Text
Language : English
Default : No
Forced : No

Субтитры


1
00:02:12,000 --> 00:02:15,915
Дмитрий, я думаю, ты должен извиниться
перед этим большим мужчиной...
2
00:02:16,004 --> 00:02:19,162
- что сидит на тебе сверху.
- Извините.
3
00:02:19,340 --> 00:02:21,891
Представляю вам убийцу
4
00:02:23,470 --> 00:02:24,892
Каунт Ренелоу.
5
00:02:25,470 --> 00:02:27,471
Будь ты проклята, Ребекка Райан.
6
00:02:27,975 --> 00:02:31,476
Ребекка, ты невероятна.
7
00:02:33,481 --> 00:02:37,862
Дмитрий, ты же знаешь,
я всегда получаю своего мужчину.
8
00:02:38,404 --> 00:02:39,635
Нет.
9
00:02:42,700 --> 00:02:47,460
Дмитрий, ты же знаешь,
я всегда получаю свою женщину.
10
00:02:48,831 --> 00:02:50,310
Не годится.
11
00:02:55,254 --> 00:02:58,989
Дмитрий, ты же знаешь,
я всегда получаю своего человека.
12
00:02:59,718 --> 00:03:01,626
Отвратительно.
13
00:03:05,557 --> 00:03:08,929
Давай, Ребекка, блесни.
Я хочу поехать в Париж.
14
00:03:20,365 --> 00:03:21,646
"Дмитрий," сказала Ребекка...
15
00:03:22,492 --> 00:03:27,443
"ты же знаешь, я всегда получаю своего
мужчину. Даже когда он женщина."
16
00:03:31,419 --> 00:03:32,915
Мне нравится.
17
00:03:38,635 --> 00:03:40,960
- Я закончила рассказ для конкурса.
- Какого конкурса?
18
00:03:41,179 --> 00:03:43,303
Конкурса Ребекки Райан.
Хочешь почитать?
19
00:03:43,390 --> 00:03:46,973
С удовольствием, но у меня сейчас
нет времени. Я прочитаю его позже.
20
00:03:48,228 --> 00:03:49,770
В нем неожиданная концовка.
21
00:03:55,486 --> 00:03:59,863
Это очень важно, малыш, что
ты занимаешься любимым делом.
22
00:04:02,869 --> 00:04:04,529
Вернусь поздно.
23
00:04:05,872 --> 00:04:07,117
Удачного тебе...
24
00:04:09,543 --> 00:04:10,575
дня.

If your ratio falls below 0.3, you will not be able to download Torrents! More about the rating.

[erzsebet.pl].t52182.torrent
Torrent: Registered   [ 2017-12-11 02:36 ]

Download .torrent

Download

11 KB

Status: checked
Completed: 16 times
Size: 2.09 GB
terms.php

#1

11-Dec-2017 01:19

[Profile]  [PM] 
Display posts:    

You cannot post new topics in this forum
You cannot reply to topics in this forum
You cannot edit your posts in this forum
You cannot delete your posts in this forum
You cannot vote in polls in this forum
You cannot attach files in this forum
You can download files in this forum
User agreement
For copyright holders
Advertise on this site

Скачайте на халяву через торрент на трекере erzsebet.pl

!ATTENTION!
The site does not give electronic versions of products, and is engaged only in a collecting and cataloguing of the references sent and published at a forum by our readers. If you are the legal owner of any submitted material and do not wish that the reference to it was in our catalogue, contact us and we shall immediately remove her. Files for an exchange on tracker are given by users of a site, and the administration does not bear the responsibility for their maintenance. The request to not fill in the files protected by copyrights, and also files of the illegal maintenance!