Королевское братство (Король пердунов) / King frat (Кен Видерхорн /Ken Wiederhorn) [1979, США, Комедия, VHSRip] VO

DL-List and Torrent activity
Size:  700 MB   |    Registered:  2 years 10 months   |    Completed:  16 times
Seeders:  2  
 
   
 
 

Max Levien ®

Longevity:
2 years 10 months
Posts:
20374

[Quote] 

Королевское братство (Король пердунов) / King frat
Год выпуска: 1979
Страна: США
Жанр: Комедия
Продолжительность: 1:24:59
Перевод: Одноголосый закадровый
Русские субтитры: нет
Режиссер: Кен Видерхорн /Ken Wiederhorn/
В ролях: Джон Ди Сантис, Дэн Чандлер, Майк Гребоу, Дэн Фицджералд
Описание: Молодежная комедия из жизни студентов-лоботрясов. Много непритязательного юмора, надо отключить голову и смотреть.
Качество: VHSRip
Формат: AVI
Видео кодек: DivX
Аудио кодек: MP3
Видео: 368x272 (1.25:1) 25 fps
Аудио: русский MP3 VBR ~128 kbps

техданные

Общее
Полное имя : D:\торрент\Король пердунов.avi
Формат : AVI
Формат/Информация : Audio Video Interleave
Размер файла : 700 Мбайт
Продолжительность : 1 ч. 24 м.
Режим общего битрейта : Переменный
Общий поток : 1152 Кбит/сек
Программа кодирования : VirtualDubMod 1.5.4.1 (build 2178/release)
Библиотека кодирования : VirtualDubMod build 2178/release
Видео
Идентификатор : 0
Формат : MPEG-4 Visual
Параметр BVOP формата : 1
Параметр QPel формата : Нет
Параметр GMC формата : Без точки перехода
Параметр матрицы формата : Default (H.263)
Режим смешивания : Сжатый битовый поток
Идентификатор кодека : DX50
Идентификатор кодека/Подсказка : DivX 5
Продолжительность : 1 ч. 24 м.
Битрейт : 1035 Кбит/сек
Ширина : 368 пикселей
Высота : 272 пикселя
Соотношение сторон : 4:3
Частота кадров : 25,000 кадров/сек
Цветовое пространство : YUV
Субдискретизация насыщенности : 4:2:0
Битовая глубина : 8 бит
Тип развёртки : Прогрессивная
Метод сжатия : С потерями
Бит/(Пиксели*Кадры) : 0.414
Размер потока : 629 Мбайт (90%)
Библиотека кодирования : DivX 6.8.0 (UTC 2007-12-04)
Аудио
Идентификатор : 1
Формат : MPEG Audio
Версия формата : Version 1
Профиль формата : Layer 3
Режим : Joint stereo
Идентификатор кодека : 55
Идентификатор кодека/Подсказка : MP3
Продолжительность : 1 ч. 24 м.
Вид битрейта : Переменный
Битрейт : 104 Кбит/сек
Номинальный битрейт : 128 Кбит/сек
Каналы : 2 канала
Частота : 48,0 КГц
Метод сжатия : С потерями
Размер потока : 63,1 Мбайт (9%)
Выравнивание : Соединение по промежуткам
Продолжительность промежутка : 24 мс. (0,60 видеокадр)
Время предзагрузки промежутка : 525 мс.
Библиотека кодирования : LAME3.97
Настройки программы : -m j -V 4 -q 2 -lowpass 17 --abr 128
Язык : English

Скриншоты

If your ratio falls below 0.3, you will not be able to download Torrents! More about the rating.

[erzsebet.pl].t52188.torrent
Torrent: Registered   [ 2017-12-11 02:36 ]

Download .torrent

Download

14 KB

Status: checked
Completed: 16 times
Size: 700 MB
terms.php

#1

11-Dec-2017 01:19

[Profile]  [PM] 
Display posts:    

You cannot post new topics in this forum
You cannot reply to topics in this forum
You cannot edit your posts in this forum
You cannot delete your posts in this forum
You cannot vote in polls in this forum
You cannot attach files in this forum
You can download files in this forum
User agreement
For copyright holders
Advertise on this site

Скачайте на халяву через торрент на трекере erzsebet.pl

!ATTENTION!
The site does not give electronic versions of products, and is engaged only in a collecting and cataloguing of the references sent and published at a forum by our readers. If you are the legal owner of any submitted material and do not wish that the reference to it was in our catalogue, contact us and we shall immediately remove her. Files for an exchange on tracker are given by users of a site, and the administration does not bear the responsibility for their maintenance. The request to not fill in the files protected by copyrights, and also files of the illegal maintenance!