Гладиаторы из Лос-Анджелеса / East L.A. Warriors / Guerrero del Este de Los Angeles (Эддисон Рэндалл / Addison Randall) [1989, Мексика, США, Боевик, драма, DVDRip] AVO (Антон Алексеев)

DL-List and Torrent activity
Size:  744 MB   |    Registered:  2 years 10 months   |    Completed:  16 times
Seeders:  2  
 
   
 
 

Max Levien ®

Longevity:
2 years 10 months
Posts:
20374

[Quote] 

Гладиаторы из Лос-Анджелеса / East L.A. Warriors / Guerrero del Este de Los Angeles
Страна: Мексика, США
Жанр: Боевик, драма
Год выпуска: 1989
Продолжительность: 01:26:46
Перевод: Авторский (одноголосый закадровый) Антон Алексеев
Субтитры: нет
Режиссер: Эддисон Рэндалл / Addison Randall
В ролях: Тони Браво, Камар Де Лос Рейс, Сабино Вилла Лобос, Джеймс Далесандро, Дэн Моро, Уильям Смит
Описание: Боевики бывают "крутые", "бешеный", "динамичные" и проч. Этот боевик - красивый. Уроки каратэ на берегу моря, среди скал; главный герой на этих же скалах, море плещет - глаз не оторвать! За счет моря со скалами фильм и смотрится, все остальное достаточно традиционно. Квартал мексиканцев - "чиканос". Молодежь обязана состоять в бандах, через "воспитание бандой" прошли здесь все, включая полицейских. Молодежные банды восточного Лос-Анджелеса, враждуя между собой, время от времени выставляют своих лучших бойцов для участия в подпольном турнире "поединков без правил" в гладиаторском стиле. Бывший член банды, а ныне супермен-одиночка Олело Корнехо решает разорвать порочный круг убийств и насилия. Он обучает юного Паоло искусству борьбы, после чего оба они выходят на ринг против главаря местной мафии. Супермены сходятся в финальном поединке, под рев толпы и закадровую музыку... Классический финал классического боевика. Любители каратэ останутся довольны.
Сэмпл: http://multi-up.com/1110656
Качество видео: DVDRip (Исходник - DVD Video)
Формат видео: AVI
Видео: XviD, 624x480, (4:3), 23,976 fps, 997 Кбит/с, 8 бит
Аудио: Русский (АС3, 2 ch (Front: L R), 48,0 KHz, 192 Kbps)

MediaInfo

Общее
Полное имя : F:\Видеофильмы\В и д е о\Гладиаторы из Лос - Анджелеса (боевик 1989г).avi
Формат : AVI
Формат/Информация : Audio Video Interleave
Размер файла : 744 Мбайт
Продолжительность : 1 ч. 26 м.
Общий поток : 1198 Кбит/сек
Программа кодирования : VirtualDubMod 1.5.10.2 (build 2540/release)
Библиотека кодирования : VirtualDubMod build 2540/release
Видео
Идентификатор : 0
Формат : MPEG-4 Visual
Профиль формата : Advanced [email protected]
Параметр BVOP формата : 2
Параметр QPel формата : Нет
Параметр GMC формата : Без точки перехода
Параметр матрицы формата : Выборочная
Идентификатор кодека : XVID
Идентификатор кодека/Подсказка : XviD
Продолжительность : 1 ч. 26 м.
Битрейт : 997 Кбит/сек
Ширина : 624 пикселя
Высота : 480 пикселей
Соотношение сторон : 4:3
Частота кадров : 23,976 (24000/1001) кадра/сек
Цветовое пространство : YUV
Субдискретизация насыщенности : 4:2:0
Битовая глубина : 8 бит
Тип развёртки : Прогрессивная
Метод сжатия : С потерями
Бит/(Пиксели*Кадры) : 0.139
Размер потока : 619 Мбайт (83%)
Библиотека кодирования : XviD 1.2.0.dev47 (UTC 2006-11-01)
Аудио
Идентификатор : 1
Формат : AC-3
Формат/Информация : Audio Coding 3
Расширение режима : CM (complete main)
Параметр Endianness формата : Big
Идентификатор кодека : 2000
Продолжительность : 1 ч. 26 м.
Вид битрейта : Постоянный
Битрейт : 192 Кбит/сек
Каналы : 2 канала
Расположение каналов : Front: L R
Частота : 48,0 КГц
Частота кадров : 31,250 кадров/сек (1536 spf)
Метод сжатия : С потерями
Размер потока : 119 Мбайт (16%)
Выравнивание : Разделение по промежуткам
Продолжительность промежутка : 42 мс. (1,00 видеокадр)
Время предзагрузки промежутка : 500 мс.

Скриншот c названием фильма

Скриншоты

If your ratio falls below 0.3, you will not be able to download Torrents! More about the rating.

[erzsebet.pl].t52196.torrent
Torrent: Registered   [ 2017-12-11 02:36 ]

Download .torrent

Download

15 KB

Status: checked
Completed: 16 times
Size: 744 MB
terms.php

#1

11-Dec-2017 01:19

[Profile]  [PM] 
Display posts:    

You cannot post new topics in this forum
You cannot reply to topics in this forum
You cannot edit your posts in this forum
You cannot delete your posts in this forum
You cannot vote in polls in this forum
You cannot attach files in this forum
You can download files in this forum
User agreement
For copyright holders
Advertise on this site

Скачайте на халяву через торрент на трекере erzsebet.pl

!ATTENTION!
The site does not give electronic versions of products, and is engaged only in a collecting and cataloguing of the references sent and published at a forum by our readers. If you are the legal owner of any submitted material and do not wish that the reference to it was in our catalogue, contact us and we shall immediately remove her. Files for an exchange on tracker are given by users of a site, and the administration does not bear the responsibility for their maintenance. The request to not fill in the files protected by copyrights, and also files of the illegal maintenance!