Свершившийся Факт / Рассвет Вуду / Украденное проклятье / Проклятые деньги / Fait Accompli (Анджей Секула / Andrzej Sekula) [1998, США, Триллер, драма, DVDRip] AVO (Юрий Сербин)

DL-List and Torrent activity
Size:  745 MB   |    Registered:  2 years 10 months   |    Completed:  16 times
Seeders:  2  
 
   
 
 

Max Levien ®

Longevity:
2 years 10 months
Posts:
20374

[Quote] 

Свершившийся Факт / Рассвет Вуду / Украденное проклятье / Проклятые деньги / Fait Accompli
Страна: США
Жанр: Триллер, драма
Год выпуска: 1998
Продолжительность: 01:29:44
Перевод: Авторский (одноголосый закадровый) Юрий Сербин
Субтитры: нет
Режиссер: Анджей Секула / Andrzej Sekula
В ролях: Майкл Мэдсен, Розанна Аркет, Бальтазар Гетти, Филлип Глассер, Джеймс Руссо
Описание: Второразрядный воришка крадет большие деньги. К его несчастью, он даже не подозревает, что эти деньги принадлежат жрице вуду, которая наложила на них заклятье. Деньги вскоре оказываются в руках Фрэнка Барлоу, криминального босса и ярого адепта религии вуду. С ужасом узнав, каким «богатством» он завладел, Фрэнк решает при первой же возможности вернуть украденное. Но у его любовницы Джезебел дркгие планы на будущее. Всю жизнь ожидавшая подобной возможности, красотка с улыбкой покидает город, захвативс собой туго набитую деньгами сумку. Скрываясь от погони, она прячется в пустующем доме, куда скоро должны вернуться владельцы.
Сэмпл: http://multi-up.com/1110980
Качество видео: DVDRip (Исходник - DVD Video)
Формат видео: AVI
Видео: XviD, 624x352, ( 16:9), 25,000 fps, 883 Кбит/сек, 8 бит
Аудио: Русский (АС3, 2 ch (Front: L R), 48,0 KHz, 192 Kbps)

MediaInfo

Общее
Полное имя : F:\Видеофильмы\В и д е о\Свершившийся факт (триллер 1998г).avi
Формат : AVI
Формат/Информация : Audio Video Interleave
Размер файла : 745 Мбайт
Продолжительность : 1 ч. 29 м.
Общий поток : 1161 Кбит/сек
Программа кодирования : VirtualDubMod 1.5.10.3 | www.virtualdub-fr.org || (build 2550/release)
Библиотека кодирования : VirtualDubMod build 2550/release
Видео
Идентификатор : 0
Формат : MPEG-4 Visual
Профиль формата : Advanced [email protected]
Параметр BVOP формата : 2
Параметр QPel формата : Нет
Параметр GMC формата : Без точки перехода
Параметр матрицы формата : Выборочная
Идентификатор кодека : XVID
Идентификатор кодека/Подсказка : XviD
Продолжительность : 1 ч. 29 м.
Битрейт : 960 Кбит/сек
Ширина : 624 пикселя
Высота : 352 пикселя
Соотношение сторон : 16:9
Частота кадров : 25,000 кадров/сек
Цветовое пространство : YUV
Субдискретизация насыщенности : 4:2:0
Битовая глубина : 8 бит
Тип развёртки : Прогрессивная
Метод сжатия : С потерями
Бит/(Пиксели*Кадры) : 0.175
Размер потока : 616 Мбайт (83%)
Библиотека кодирования : XviD 1.2.1 (UTC 2008-12-04)
Аудио
Идентификатор : 1
Формат : AC-3
Формат/Информация : Audio Coding 3
Расширение режима : CM (complete main)
Параметр Endianness формата : Big
Идентификатор кодека : 2000
Продолжительность : 1 ч. 29 м.
Вид битрейта : Постоянный
Битрейт : 192 Кбит/сек
Каналы : 2 канала
Расположение каналов : Front: L R
Частота : 48,0 КГц
Частота кадров : 31,250 кадров/сек (1536 spf)
Метод сжатия : С потерями
Размер потока : 123 Мбайт (17%)
Выравнивание : Разделение по промежуткам
Продолжительность промежутка : 40 мс. (1,00 видеокадр)
Время предзагрузки промежутка : 500 мс.

Скриншот c названием фильма

Скриншоты

If your ratio falls below 0.3, you will not be able to download Torrents! More about the rating.

[erzsebet.pl].t52197.torrent
Torrent: Registered   [ 2017-12-11 02:36 ]

Download .torrent

Download

15 KB

Status: checked
Completed: 16 times
Size: 745 MB
terms.php

#1

11-Dec-2017 01:19

[Profile]  [PM] 
Display posts:    

You cannot post new topics in this forum
You cannot reply to topics in this forum
You cannot edit your posts in this forum
You cannot delete your posts in this forum
You cannot vote in polls in this forum
You cannot attach files in this forum
You can download files in this forum
User agreement
For copyright holders
Advertise on this site

Скачайте на халяву через торрент на трекере erzsebet.pl

!ATTENTION!
The site does not give electronic versions of products, and is engaged only in a collecting and cataloguing of the references sent and published at a forum by our readers. If you are the legal owner of any submitted material and do not wish that the reference to it was in our catalogue, contact us and we shall immediately remove her. Files for an exchange on tracker are given by users of a site, and the administration does not bear the responsibility for their maintenance. The request to not fill in the files protected by copyrights, and also files of the illegal maintenance!