Бесшумные убийцы / Молчаливые убийцы / Silent Assassins (Ду-Янг Ли, Скотт Томас / Doo-yong Lee, Scott Thomas) [1988, США, Боевик, VHSRip] AVO (Андрей Дольский)

DL-List and Torrent activity
Size:  1.37 GB   |    Registered:  2 years 10 months   |    Completed:  16 times
Seeders:  2  
 
   
 
 

Max Levien ®

Longevity:
2 years 10 months
Posts:
20374

[Quote] 

Бесшумные убийцы / Молчаливые убийцы / Silent Assassins
Страна: США
Жанр: Боевик
Год выпуска: 1988
Продолжительность: 01:28:02
Перевод: Авторский (одноголосый закадровый) - Андрей Дольский
Субтитры: нет
Режиссер: Ду-Янг Ли, Скотт Томас / Doo-yong Lee, Scott Thomas
В ролях: Линда Блэр, Сэм Дж. Джонс, Джан Чонг, Филлип Ри, Мако, Билл Эрвин, Густав Винтас, Ребекка Ферратти, Питер Луни, Чарльз Янг
Описание: Доктор Терренс Лондон — известный биохимик — оказался близок к тайне, связанной со смертельной формулой нового бактериологического оружия, но отказывается рассказать об этом своим коллегам.
Гуманного доктора — вместе с пятилетней девочкой Джоанной, чьи родители зверски уничтожены секретными агентами, — похищают эти убийцы… Страшная угроза жизни миллионов людей может стать реальностью…
Альтернативное описание: Отвратительный злодей Кендрик похитил старого ученого, изобретателя страшного биологического оружия, усиленного вируса сибирской язвы. Он готов уничтожить весь мир, чтобы добиться власти. Его армия ниндзей-убийц "Ига" уничтожает всякого, кто встанет на его пути. Похоже, его невозможно остановить.
Но на тропу войны с ним вышли крутой коп Сэм (Сэм Джонс), мстящий за страшную смерть своих коллег, эксперт по боевым искусствам Джун Ким (Джун Чонг), чью племянницу похитили злодеи, и молодой инструктор единоборств Бернард (Филип Ри), у которого изверги убили любимую девушку и отца. Трое смельчаков против целых полчищ отлично вооруженных, жестоких, владеющих смертоносными приемами беспощадных молчаливых убийц!
Прекрасный фильм! Сэм Джонс как всегда хорош со своим "черным" юмором, а мастера Джан Чонг и Филип Ри (они же постановщики боев), показывают во всей своей красе хапкидо, таэквондо и работу с оружием: ножами, мечами, серпами и даже топорами. Филип Ри впоследствии снялся в знаменитой серии "Лучшие из лучших", а это один из его первых фильмов. Обязательно посмотрите, очень редкий фильм!...(Из сети)
Доп. информация: За появление фильма с переводом СПАСИБО энтузиастам Азиатеки и Video Demons!
Сэмпл: http://multi-up.com/795271
Качество видео: VHSRip (VHS => DVD5 => VHSRip)
Формат видео: AVI
Видео: 704x544 (1.29:1), 25 fps, XviD build 65 ~2024 kbps avg, 0.21 bit/pixel
Аудио: 48 kHz, AC3 Dolby Digital, 2/0 (L,R) ch, ~192 kbps

MediaInfo

Общее
Полное имя : Beshymnije.ybiizij.1988.XviD.VHSRip.AVO_SergV.avi
Формат : AVI
Формат/Информация : Audio Video Interleave
Размер файла : 1,37 Гбайт
Продолжительность : 1 ч. 28 м.
Общий поток : 2227 Кбит/сек
Название фильма : Beshymnije.ybiizij.1988.XviD.VHSRip.AVO_SergV
Программа кодирования : VirtualDubMod 1.5.10.3 | www.virtualdub-fr.org || (build 2550/release)
Примечание : Рип от SergV
Видео
Идентификатор : 0
Формат : MPEG-4 Visual
Профиль формата : Advanced [email protected]
Параметр BVOP формата : 2
Параметр QPel формата : Нет
Параметр GMC формата : Без точки перехода
Параметр матрицы формата : Default (MPEG)
Идентификатор кодека : XVID
Идентификатор кодека/Подсказка : XviD
Продолжительность : 1 ч. 28 м.
Битрейт : 2025 Кбит/сек
Ширина : 704 пикселя
Высота : 544 пикселя
Соотношение сторон : 1,294
Частота кадров : 25,000 кадров/сек
Цветовое пространство : YUV
Субдискретизация насыщенности : 4:2:0
Битовая глубина : 8 бит
Тип развёртки : Прогрессивная
Метод сжатия : С потерями
Бит/(Пиксели*Кадры) : 0.211
Размер потока : 1,25 Гбайт (91%)
Библиотека кодирования : XviD 65
Аудио
Идентификатор : 1
Формат : AC-3
Формат/Информация : Audio Coding 3
Расширение режима : CM (complete main)
Параметр Endianness формата : Big
Идентификатор кодека : 2000
Продолжительность : 1 ч. 28 м.
Вид битрейта : Постоянный
Битрейт : 192 Кбит/сек
Каналы : 2 канала
Расположение каналов : Front: L R
Частота : 48,0 КГц
Битовая глубина : 16 бит
Метод сжатия : С потерями
Размер потока : 121 Мбайт (9%)
Выравнивание : Разделение по промежуткам
Продолжительность промежутка : 40 мс. (1,00 видеокадр)
Время предзагрузки промежутка : 500 мс.

Скриншот c названием фильма

Рип от:

If your ratio falls below 0.3, you will not be able to download Torrents! More about the rating.

[erzsebet.pl].t52206.torrent
Torrent: Registered   [ 2017-12-11 02:36 ]

Download .torrent

Download

14 KB

Status: checked
Completed: 16 times
Size: 1.37 GB
terms.php

#1

11-Dec-2017 01:19

[Profile]  [PM] 
Display posts:    

You cannot post new topics in this forum
You cannot reply to topics in this forum
You cannot edit your posts in this forum
You cannot delete your posts in this forum
You cannot vote in polls in this forum
You cannot attach files in this forum
You can download files in this forum
User agreement
For copyright holders
Advertise on this site

Скачайте на халяву через торрент на трекере erzsebet.pl

!ATTENTION!
The site does not give electronic versions of products, and is engaged only in a collecting and cataloguing of the references sent and published at a forum by our readers. If you are the legal owner of any submitted material and do not wish that the reference to it was in our catalogue, contact us and we shall immediately remove her. Files for an exchange on tracker are given by users of a site, and the administration does not bear the responsibility for their maintenance. The request to not fill in the files protected by copyrights, and also files of the illegal maintenance!