Красный бунчук Чингизхана / Kizil tug Cengiz han (Айдын Аракон / Aydin Arakon) [1952, Турция, Приключения, исторический, DVDRip]+ Sub Rus

DL-List and Torrent activity
Size:  747 MB   |    Registered:  2 years 10 months   |    Completed:  16 times
Seeders:  2  
 
   
 
 

Max Levien ®

Longevity:
2 years 10 months
Posts:
20374

[Quote] 

Красный бунчук Чингизхана / Kizil tug Cengiz han
Страна: Турция
Жанр: Приключения, исторический
Год выпуска: 1952
Продолжительность: 01:15:18
Перевод: Субтитры андрей-д
Субтитры: русские
Оригинальная аудиодорожка: турецкий
Режиссер: Айдын Аракон / Aydin Arakon
В ролях: Месиха Ыелда, Туран Сеыфиоглу, Цахит Иргат, Небиле Текер, Рауф Улукут, Атиф Каптан, Муфит Кипер
Описание: Более ста лет, Монгольская империя простиралась от Тихого океана до Средиземного моря. Начало этой империи положили завоевания Чингизхана, символом которых был его красный бунчук. Но, не он главный герой фильма. Бедный и бездомный турецкий воин приходит на помощь Чингизхану и его братьям, когда на них нападают противники. Восхищённый его храбростью и умением обращаться с мечом, Чингизхан предлагает ему присоединиться к своим сторонникам. Но, тот отказывается. Тогда, Чингизхан просит выполнить одно поручение: попросить прислать деньги, которые ему должны. Но, поручение оказывается не таким простым, как казалось…
Доп. информация: Рип, предоставила larisa547.
Оцифровка сделала с не отреставрированной копии фильма.
Сэмпл: http://multi-up.com/1061643
Качество видео: DVDRip
Формат видео: AVI
Видео: 512x384 (1.33:1), 25 fps, XviD build 64 ~1249 kbps avg, 0.25 bit/pixel
Аудио: 48 kHz, MPEG Layer 3, 2 ch, ~128.00 kbps avg
Формат субтитров: softsub (SRT)

MediaInfo

Format : AVI
Format/Info : Audio Video Interleave
File size : 747 MiB
Duration : 1h 15mn
Overall bit rate : 1 387 Kbps
Writing application : VirtualDubModRus 1.5.10.2 (build 2542/release)
Writing library : VirtualDubMod build 2542/release
Video
ID : 0
Format : xvid
Codec ID : xvid
Duration : 1h 15mn
Bit rate : 1 249 Kbps
Width : 512 pixels
Height : 384 pixels
Display aspect ratio : 4:3
Frame rate : 25.000 fps
Bits/(Pixel*Frame) : 0.254
Stream size : 673 MiB (90%)
Audio
ID : 1
Format : MPEG Audio
Format version : Version 1
Format profile : Layer 3
Mode : Joint stereo
Mode extension : MS Stereo
Codec ID : 55
Codec ID/Hint : MP3
Duration : 1h 15mn
Bit rate mode : Constant
Bit rate : 128 Kbps
Channel count : 2 channels
Sampling rate : 48.0 KHz
Compression mode : Lossy
Stream size : 68.9 MiB (9%)
Alignment : Split accross interleaves
Interleave, duration : 40 ms (1.00 video frame)
Interleave, preload duration : 500 ms

Скриншот c названием фильма

Скриншоты

Пример субтитров

1
00:00:00,920 --> 00:00:06,717
Красный бунчук Чингизхана
2
00:02:17,920 --> 00:02:28,717
Съёмочная группа фильма выражает свою благодарность
Турецким вооружённым силам за помощь при создании этого фильма.
3
00:03:16,280 --> 00:03:17,156
Темучин! Он, придёт?
4
00:03:18,840 --> 00:03:19,590
Да. Вот, он.
5
00:03:45,280 --> 00:03:49,193
Посмотри, как проголодался этот дурак.
6
00:03:52,520 --> 00:03:56,559
Он сидит, так как будь-то считает,
что владеет миром.
7
00:04:03,400 --> 00:04:06,995
Его меч горит. Но, от него
исходит запах смерти.
8
00:04:07,320 --> 00:04:10,118
Что, он сможет предложить, повелителю?
9
00:04:13,400 --> 00:04:18,349
Кроме, моей рваной одежды и обуви,
у меня есть окрашенный кровью меч.
10
00:04:19,080 --> 00:04:22,595
Если, вы хотите, его увидеть,
то - смотрите!!!
11
00:04:23,400 --> 00:04:25,630
Вижу, что ты: храбрый молодой человек.
12
00:04:26,360 --> 00:04:29,989
Возможно, ты не узнал меня,
Я - Гелмен, убийца львов.
13
00:04:30,520 --> 00:04:32,272
Если, ты не готов умереть,
то уходи.
14
00:04:33,280 --> 00:04:35,236
Я могу сказать, кто вы по судя по вашей речи.
15
00:04:35,760 --> 00:04:38,672
Я узнал: Темучина, Гелмена, убийцу львов,
16
00:04:38,880 --> 00:04:40,598
и Кассара Алпа.
17
00:04:40,960 --> 00:04:43,474
Что касается меня, то у меня нет громкого имени.
Я - неизвестен.
18
00:04:44,760 --> 00:04:48,230
Все называют меня, Отсукарчи.
Вам, нужны такие воины, как отсукарчи.
19
00:04:48,840 --> 00:04:52,355
Вообще-то, многие из тех, кто может постоять
за себя, становились такими как Гелмен! Сразимся!
20
00:04:52,760 --> 00:04:54,955
Давай посмотрим, каков ты есть.
Начнём!

If your ratio falls below 0.3, you will not be able to download Torrents! More about the rating.

[erzsebet.pl].t52210.torrent
Torrent: Registered   [ 2017-12-11 02:36 ]

Download .torrent

Download

15 KB

Status: checked
Completed: 16 times
Size: 747 MB
terms.php

#1

11-Dec-2017 01:19

[Profile]  [PM] 
Display posts:    

You cannot post new topics in this forum
You cannot reply to topics in this forum
You cannot edit your posts in this forum
You cannot delete your posts in this forum
You cannot vote in polls in this forum
You cannot attach files in this forum
You can download files in this forum
User agreement
For copyright holders
Advertise on this site

Скачайте на халяву через торрент на трекере erzsebet.pl

!ATTENTION!
The site does not give electronic versions of products, and is engaged only in a collecting and cataloguing of the references sent and published at a forum by our readers. If you are the legal owner of any submitted material and do not wish that the reference to it was in our catalogue, contact us and we shall immediately remove her. Files for an exchange on tracker are given by users of a site, and the administration does not bear the responsibility for their maintenance. The request to not fill in the files protected by copyrights, and also files of the illegal maintenance!