Черный полдень / Black Noon (Бернард Ковальски / Bernard Kowalski) [1971, США, вестерн, ужасы, VHSRip] VO (Хэм)

DL-List and Torrent activity
Size:  712 MB   |    Registered:  2 years 10 months   |    Completed:  16 times
Seeders:  3  
 
   
 
 

Max Levien ®

Longevity:
2 years 10 months
Posts:
20374

[Quote] 

Черный полдень / Black Noon
Страна: США
Жанр: вестерн, ужасы
Год выпуска: 1971
Продолжительность: 1:14:17
Перевод: Одноголосый закадровый Хэм
Субтитры: нет
Режиссер: Бернард Ковальски / Bernard Kowalski
В ролях: Рой Тиннес, Иветт Мимо, Рэй Милланд, Генри Сильва
Описание: Заблудившегося в пустыне священника Джона Кейса и его жену Лорну находит и спасает от верной смерти некто Калеб Хоббс, мэр небольшого городка Сан Мелас. Хоббс предлагает им крышу над головой и заодно сообщает, что с тех пор, как сгорела местная церковь, дела в городе стали идти из рук вон плохо. Решив поддержать падающий дух горожан, священник соглашается остаться в Сан Меласе на некоторое время, однако Лорна начинает подозревать, что жители что-то от них скрывают.
Доп. информация: imdb
Качество видео: VHSRip
Формат видео: AVI
Видео: XVID, 4:3, 640x480, 29,970 Fps, 1200 Kbps
Аудио: MP3, 44,1 Khz, 128 Kbps, 2.0

MediaInfo

General
Complete name : E:\1970\Черный полдень1971.avi
Format : AVI
Format/Info : Audio Video Interleave
File size : 712 MiB
Duration : 1h 14mn
Overall bit rate : 1 340 Kbps
Writing library : VirtualDub build 32817/release
Video
ID : 0
Format : MPEG-4 Visual
Format profile : [email protected]
Format settings, BVOP : No
Format settings, QPel : No
Format settings, GMC : No warppoints
Format settings, Matrix : Default (H.263)
Codec ID : XVID
Codec ID/Hint : XviD
Duration : 1h 14mn
Bit rate : 1 200 Kbps
Width : 640 pixels
Height : 480 pixels
Display aspect ratio : 4:3
Frame rate : 29.970 fps
Color space : YUV
Chroma subsampling : 4:2:0
Bit depth : 8 bits
Scan type : Progressive
Compression mode : Lossy
Bits/(Pixel*Frame) : 0.130
Stream size : 638 MiB (90%)
Writing library : Magic0432
Audio
ID : 1
Format : MPEG Audio
Format version : Version 1
Format profile : Layer 3
Mode : Joint stereo
Mode extension : MS Stereo
Codec ID : 55
Codec ID/Hint : MP3
Duration : 1h 14mn
Bit rate mode : Constant
Bit rate : 128 Kbps
Channel(s) : 2 channels
Sampling rate : 44.1 KHz
Compression mode : Lossy
Stream size : 68.0 MiB (10%)
Alignment : Split accross interleaves
Interleave, duration : 33 ms (1.00 video frame)
Interleave, preload duration : 500 ms

Скриншоты

If your ratio falls below 0.3, you will not be able to download Torrents! More about the rating.

[erzsebet.pl].t52217.torrent
Torrent: Registered   [ 2017-12-11 02:36 ]

Download .torrent

Download

14 KB

Status: checked
Completed: 16 times
Size: 712 MB
terms.php

#1

11-Dec-2017 01:19

[Profile]  [PM] 
Display posts:    

You cannot post new topics in this forum
You cannot reply to topics in this forum
You cannot edit your posts in this forum
You cannot delete your posts in this forum
You cannot vote in polls in this forum
You cannot attach files in this forum
You can download files in this forum
User agreement
For copyright holders
Advertise on this site

Скачайте на халяву через торрент на трекере erzsebet.pl

!ATTENTION!
The site does not give electronic versions of products, and is engaged only in a collecting and cataloguing of the references sent and published at a forum by our readers. If you are the legal owner of any submitted material and do not wish that the reference to it was in our catalogue, contact us and we shall immediately remove her. Files for an exchange on tracker are given by users of a site, and the administration does not bear the responsibility for their maintenance. The request to not fill in the files protected by copyrights, and also files of the illegal maintenance!