Запретное солнце / Forbidden Sun (Зелда Бэррон / Zelda Barron) [1989, Великобритания, США, Триллер, DVDRip] AVO (Вартан Дохалов)

DL-List and Torrent activity
Size:  1.37 GB   |    Registered:  2 years 10 months   |    Completed:  16 times
Seeders:  2  
 
   
 
 

Max Levien ®

Longevity:
2 years 10 months
Posts:
20374

[Quote] 

Запретное солнце / Forbidden Sun
Страна: Великобритания, США
Жанр: Триллер
Год выпуска: 1989
Продолжительность: 01:28:57
Перевод: Авторский (одноголосый закадровый) Вартан Дохалов
Субтитры: нет
Режиссер: Зелда Бэррон / Zelda Barron
В ролях: Лорен Хаттон, Клифф Де Янг, Светислав Гончич, Роберт Бельтран, Вивека Дэвис, Рене Эстевез, Кристин Харнос, Саманта Мэтис, Рене Пропс, Энвер Петровци
Описание:
1. Аннотация от alenavova
Давным-давно, во времена, когда древние греки сочиняли свои древнегреческие мифы, в легендарном лабиринте на острове Крит жил Минотавр - человек с головой Быка, которому местные жители приносили в жертву самых красивых девушек. В наши дни на этот же остров приезжают юные американские гимнастки для участия в сборах перед ответственными соревнованиями. Их опекают руководительница команды миссис Лэйк с мужем-профессором и тренер Джек, молодой черноволосый красавец, по ночам развлекающий миссис Лэйк всем известным способом. В разгар очередной тренировки совсем еще девочку (но уже подающую большие надежды) Полу похищает некто неизвестный и, страшно сказать, насилует! Ее соратницы ринулись на поиски злодея, претендентов на статус которого настолько мало, что поневоле начинаешь подозревать в совершении преступления кого угодно - от Минотавра до режиссера, хотя она (Зелда Бэррон) и сама женщина...
2. Тренер олимпийских гимнасток Франсин Лэйк вместе с дюжиной своих подопечных приезжают на Крит. Легендарный греческий остров становится для них тренировочной базой. И за усиленными тренировками времени на отдых среди красивых пейзажей у девушек почти не остается. Тотальная занятость разочаровывает не только молоденьких девушек, но и кого-то из местных жителей, разгоряченных близостью красивых, спортивных тел. Вскоре одну из девушек насилуют. Подозрение падает на некоего Улисса, который известен своей страстью к вуайеризму. Но не слишком ли просто раскрылось преступление? И не виновен ли в насилии над молодой спортсменкой кто-то другой?
Лорен Хаттон в свое время подавала большие надежды. Симпатичная девушка, не лишенная актерского дарования. Но что-то пошло не так... Скорее всего - плохое чутье на хорошие сценарии помешало Хаттон стать по-настоящему большой актрисой, да и до статуса "звезды" она так и не доросла. Поэтому самыми известными фильмами с ее участием так и остались "Американский жиголо", да "Однажды укушенный", к тому же, ставшие популярными благодарями ведущим актерам (Ричард Гир и Джим Кэрри соответственно), а не актрисе. Уже к концу 80-х Хаттон скатилась к второсортным постановкам и увязла в них настолько, что уже в новом тысячелетии практически и не снималась, оставив профессию. Триллер "Запретное солнце" вышел как раз в переходный для нее период. Это далеко не шедевр, да и на фоне бесконечных триллеров про убийц и насильников он теряется. Вместе с тем, поклонники жанра наверняка получат от него удовольствие, тем более, что напряжение - необходимый аттрибут триллеров - постановщица Зельда Баррон создает в нем достаточно мастеровито, да и таинственную атмосферу какую-никакую нагнетает. Среди плюсов фильма можно назвать обилие красивых девушек в кадре и завораживающие, как с открыток, виды греческого Крита. Местами "Запретное солнце" начинает даже напоминать эротические мини-шедевры Зальмана Кинга. На пользу фильму пошло и то обстоятельство, что сценарий к нему писал Робин Харди, автор культового ужастика "Плетенный человек".
Доп. информация: Дорожка с В. Дохаловым синхронизирована и наложена ale_x2008 при помощи Adobe Audition, Sony Vegas и VirtualDubMod.
За оцифрованную с VHS дорожку благодарим - alenavova

Релиз
Сэмпл: https://yadi.sk/i/jK0aBi2Ku2AqB
Качество видео: DVDRip [by CG]
Формат видео: AVI
Видео: XviD build 64, 576x432 (1.33:1), 23.976 fps, 2003 kbps avg, 0.34 bit/pixel
Аудио: AC3 Dolby Digital, 48000Hz, 2/0 (L,R) (mono), 192.00 kbps avg

MediaInfo

Запретное солнце - Forbidden Sun [by ale_x2008].avi
Format : AVI
Format/Info : Audio Video Interleave
File size : 1.37 GiB
Duration : 1 h 28 min
Overall bit rate : 2 205 kb/s
Movie name : Запретное солнце - Forbidden Sun [by ale_x2008]
Director : by ale_x2008
Writing application : VirtualDubMod 1.5.10.3 (build 2550/release)
Copyright : Edich2
Comment : erzsebet.org
Video
ID : 0
Format : MPEG-4 Visual
Format profile : Advanced [email protected]
Format settings, BVOP : 1
Format settings, QPel : No
Format settings, GMC : No warppoints
Format settings, Matrix : Custom
Codec ID : XVID
Codec ID/Hint : XviD
Duration : 1 h 28 min
Bit rate : 2 004 kb/s
Width : 576 pixels
Height : 432 pixels
Display aspect ratio : 4:3
Frame rate : 23.976 (23976/1000) FPS
Color space : YUV
Chroma subsampling : 4:2:0
Bit depth : 8 bits
Scan type : Progressive
Compression mode : Lossy
Bits/(Pixel*Frame) : 0.336
Stream size : 1.25 GiB (91%)
Writing library : XviD 64
Audio
ID : 1
Format : AC-3
Format/Info : Audio Coding 3
Mode extension : CM (complete main)
Format settings, Endianness : Big
Codec ID : 2000
Duration : 1 h 28 min
Bit rate mode : Constant
Bit rate : 192 kb/s
Channel(s) : 2 channels
Channel positions : Front: L R
Sampling rate : 48.0 kHz
Frame rate : 31.250 FPS (1536 spf)
Compression mode : Lossy
Stream size : 122 MiB (9%)
Alignment : Split accross interleaves
Interleave, duration : 42 ms (1.00 video frame)
Interleave, preload duratio : 500 ms

Скриншоты


If your ratio falls below 0.3, you will not be able to download Torrents! More about the rating.

[erzsebet.pl].t52221.torrent
Torrent: Registered   [ 2017-12-11 02:36 ]

Download .torrent

Download

14 KB

Status: checked
Completed: 16 times
Size: 1.37 GB
terms.php

#1

11-Dec-2017 01:19

[Profile]  [PM] 
Display posts:    

You cannot post new topics in this forum
You cannot reply to topics in this forum
You cannot edit your posts in this forum
You cannot delete your posts in this forum
You cannot vote in polls in this forum
You cannot attach files in this forum
You can download files in this forum
User agreement
For copyright holders
Advertise on this site

Скачайте на халяву через торрент на трекере erzsebet.pl

!ATTENTION!
The site does not give electronic versions of products, and is engaged only in a collecting and cataloguing of the references sent and published at a forum by our readers. If you are the legal owner of any submitted material and do not wish that the reference to it was in our catalogue, contact us and we shall immediately remove her. Files for an exchange on tracker are given by users of a site, and the administration does not bear the responsibility for their maintenance. The request to not fill in the files protected by copyrights, and also files of the illegal maintenance!