Девчонка-сорванец / Tomboy (Херб Фрид / Herb Freed) [1985, США, комедия, DVDRip] VO (Вячеслав Котов)

DL-List and Torrent activity
Size:  743 MB   |    Registered:  2 years 10 months   |    Completed:  16 times
Seeders:  2  
 
   
 
 

Max Levien ®

Longevity:
2 years 10 months
Posts:
20374

[Quote] 

Девчонка-сорванец / Tomboy
Страна: США
Жанр: комедия
Год выпуска: 1985
Продолжительность: 01:30:23
Перевод: Одноголосый закадровый - Вячеслав Котов
Субтитры: нет
Режиссер: Херб Фрид / Herb Freed
В ролях: Бетси Расселл, Джерард Кристофер, Кристи Сомерс, Ричард Эрдман, Филип Стерлинг, Эрик Дуглас, Пол Ганнинг, Тоби Иланд
Описание: Девушка Томми даст фору любому парню. Вместо развлечений и свиданий, все свое время она проводит в авто-мастерской, ведь Томми - великолепный механик. Но все меняется, когда она знакомится с Рэнди Старком, знаменитым автогонщиком

Качество видео: DVDRip Исходник
Формат видео: AVI
Видео: 608x336, 23.976 fps, XviD ~1012 kbps avg, 0.207 bit/pixel
Аудио: 48 kHz, MPEG Layer 3, 2 ch, ~128 kbps avg

MediaInfo

Код:General
Complete name : C:\Tomboy\TomboyDVDRip.avi
Format : AVI
Format/Info : Audio Video Interleave
File size : 743 MiB
Duration : 1h 30mn
Overall bit rate : 1 149 Kbps
Writing application : VirtualDubMod 1.5.10.2 (build 2540/release)
Writing library : VirtualDubMod build 2540/release
Video
ID : 0
Format : MPEG-4 Visual
Format profile : Advanced [email protected]
Format settings, BVOP : No
Format settings, QPel : No
Format settings, GMC : No warppoints
Format settings, Matrix : Default (H.263)
Codec ID : XVID
Codec ID/Hint : XviD
Duration : 1h 30mn
Bit rate : 1 012 Kbps
Width : 608 pixels
Height : 336 pixels
Display aspect ratio : 16:9
Frame rate : 23.976 fps
Color space : YUV
Chroma subsampling : 4:2:0
Bit depth : 8 bits
Scan type : Progressive
Compression mode : Lossy
Bits/(Pixel*Frame) : 0.207
Stream size : 654 MiB (88%)
Writing library : XviD 1.2.1 (UTC 2008-12-04)
Audio
ID : 1
Format : MPEG Audio
Format version : Version 1
Format profile : Layer 3
Mode : Joint stereo
Mode extension : MS Stereo
Codec ID : 55
Codec ID/Hint : MP3
Duration : 1h 30mn
Bit rate mode : Constant
Bit rate : 128 Kbps
Channel(s) : 2 channels
Sampling rate : 48.0 KHz
Compression mode : Lossy
Stream size : 82.7 MiB (11%)
Alignment : Aligned on interleaves
Interleave, duration : 42 ms (1.00 video frame)
Interleave, preload duration : 504 ms
Writing library : LAME3.99r
Encoding settings : -m j -V 4 -q 2 -lowpass 17 -b 128

Скриншот c названием фильма

Скриншоты

If your ratio falls below 0.3, you will not be able to download Torrents! More about the rating.

[erzsebet.pl].t52231.torrent
Torrent: Registered   [ 2017-12-11 02:36 ]

Download .torrent

Download

8 KB

Status: checked
Completed: 16 times
Size: 743 MB
terms.php

#1

11-Dec-2017 01:19

[Profile]  [PM] 
Display posts:    

You cannot post new topics in this forum
You cannot reply to topics in this forum
You cannot edit your posts in this forum
You cannot delete your posts in this forum
You cannot vote in polls in this forum
You cannot attach files in this forum
You can download files in this forum
User agreement
For copyright holders
Advertise on this site

Скачайте на халяву через торрент на трекере erzsebet.pl

!ATTENTION!
The site does not give electronic versions of products, and is engaged only in a collecting and cataloguing of the references sent and published at a forum by our readers. If you are the legal owner of any submitted material and do not wish that the reference to it was in our catalogue, contact us and we shall immediately remove her. Files for an exchange on tracker are given by users of a site, and the administration does not bear the responsibility for their maintenance. The request to not fill in the files protected by copyrights, and also files of the illegal maintenance!