Комиссар X: Три зелёные собаки / Kommissar X: Drei grüne Hunde (Рудольф Цехетгрубер, Джанфранко Паролини / Rudolf Zehetgruber, Gianfranco Parolini) [1967, Германия, Италия, Франция, Ливан, Венгрия, Боевик, комедия, криминал, DVDRip] VO

DL-List and Torrent activity
Size:  1.36 GB   |    Registered:  2 years 10 months   |    Completed:  16 times
Seeders:  3  
 
   
 
 

Max Levien ®

Longevity:
2 years 10 months
Posts:
20374

[Quote] 

Комиссар X: Три зелёные собаки / Kommissar X: Drei grüne Hunde
Страна: Германия, Италия, Франция, Ливан, Венгрия
Жанр: Боевик, комедия, криминал
Год выпуска: 1967
Продолжительность: 01:28:58
Перевод: Одноголосый закадровый Алексей Яковлев
Субтитры: нет
Режиссер: Рудольф Цехетгрубер, Джанфранко Паролини / Rudolf Zehetgruber, Gianfranco Parolini
В ролях: Тони Кендалл, Брэд Харрис, Ольга Шоберова, Криста Линдер, Дитмар Шенхер, Херберт Фукс, Сабина Сун, Росселина Бергамонти, Эмилио Каррер, Карло Тамберлани
Описание: Место действия - Стамбул. Капитан полиции Том Роланд должен доставить два килограмма чистейшего ЛСД, предназначенного для военных баз, в американское посольство. Но о посылке узнает местный наркосиндикат, "Зеленые собаки". Синдикат решает, во что бы то ни стало, завладеть посылкой. Старым напарникам, Джо Волкеру и Тому Роланду вновь придется окунуться в водоворот убийств, похищений и погонь. И как всегда, в окружении красоток.
Доп. информация: Исходник DVD-9 (СПАСИБО! Al12)
Сэмпл: http://multi-up.com/963837
Качество видео: DVDRip
Формат видео: AVI
Видео: XviD build 50, 704x384 (1.83:1), 25 fps, 1992 kbps avg
Аудио: AC3 Dolby Digital, 48 kHz, 2/0 (L,R) ch, 192.00 kbps avg

MediaInfo

General
Complete name : D:\Tri.zelionih.sobaki.1967.XviD.DVDRip-Dego.avi
Format : AVI
Format/Info : Audio Video Interleave
File size : 1.36 GiB
Duration : 1h 28mn
Overall bit rate : 2 195 Kbps
Writing application : VirtualDubMod 1.5.10.2 (build 2540/release)
Writing library : VirtualDubMod build 2540/release
Video
ID : 0
Format : MPEG-4 Visual
Format profile : [email protected]
Format settings, BVOP : Yes
Format settings, QPel : No
Format settings, GMC : No warppoints
Format settings, Matrix : Default (MPEG)
Codec ID : XVID
Codec ID/Hint : XviD
Duration : 1h 28mn
Bit rate : 1 993 Kbps
Width : 704 pixels
Height : 384 pixels
Display aspect ratio : 16/9
Frame rate : 25.000 fps
Resolution : 24 bits
Colorimetry : 4:2:0
Scan type : Progressive
Bits/(Pixel*Frame) : 0.295
Stream size : 1.24 GiB (91%)
Writing library : XviD 1.2.1 (UTC 2008-12-04)
Audio
ID : 1
Format : AC-3
Format/Info : Audio Coding 3
Codec ID : 2000
Duration : 1h 28mn
Bit rate mode : Constant
Bit rate : 192 Kbps
Channel(s) : 2 channels
Channel positions : L R
Sampling rate : 48.0 KHz
Stream size : 122 MiB (9%)
Alignment : Split accross interleaves
Interleave, duration : 40 ms (1.00 video frame)
Interleave, preload duration : 500 ms

Скриншоты

If your ratio falls below 0.3, you will not be able to download Torrents! More about the rating.

[erzsebet.pl].t52236.torrent
Torrent: Registered   [ 2017-12-11 02:36 ]

Download .torrent

Download

14 KB

Status: checked
Completed: 16 times
Size: 1.36 GB
terms.php

#1

11-Dec-2017 01:19

[Profile]  [PM] 
Display posts:    

You cannot post new topics in this forum
You cannot reply to topics in this forum
You cannot edit your posts in this forum
You cannot delete your posts in this forum
You cannot vote in polls in this forum
You cannot attach files in this forum
You can download files in this forum
User agreement
For copyright holders
Advertise on this site

Скачайте на халяву через торрент на трекере erzsebet.pl

!ATTENTION!
The site does not give electronic versions of products, and is engaged only in a collecting and cataloguing of the references sent and published at a forum by our readers. If you are the legal owner of any submitted material and do not wish that the reference to it was in our catalogue, contact us and we shall immediately remove her. Files for an exchange on tracker are given by users of a site, and the administration does not bear the responsibility for their maintenance. The request to not fill in the files protected by copyrights, and also files of the illegal maintenance!