Удовлетворение / Satisfaction (Джоан Фриман / Joan Freeman) [1988, США, Мелодрама, Комедия, Музыка, DVDRip] VO (Вадим Белов)

DL-List and Torrent activity
Size:  1.46 GB   |    Registered:  2 years 10 months   |    Completed:  16 times
Seeders:  2  
 
   
 
 

Max Levien ®

Longevity:
2 years 10 months
Posts:
20374

[Quote] 

-Удовлетворение / Satisfaction--- Страна: США
Жанр: Мелодрама, Комедия, Музыка
Год выпуска: 1988
Продолжительность: 01:32:54--Перевод: Любительский (одноголосый закадровый) Вадим Белов
Субтитры: Нет
Режиссер: Джоан Фриман / Joan Freeman--В ролях: Жюстин Бейтман, Лиам Нисон, Трини Альварадо, Скотт Коффи, Бритта Филлипс, Джулия Робертс, Дебора Харри, Крис Нэш, Майкл ДеЛоренцо, Том О’Брайен и др.--Описание: Четыре девчонки и один парень – выходцы из рабочего квартала, друзья и рок-музыканты созданной ими же группы «Мистерия» – в первое лето после окончания школы приглашены выступать в клубе на дорогом морском курорте. Правда у каждого из ребят свои проблемы, но и энергии у них хоть отбавляй!
Вокалистка группы влюбляется во владельца бара. Ребята получают предложение сыграть в Европе и, возможно, стать знаменитыми. Но готовы ли они к этому?--Качество видео: DVDRip - Исходник DVD5 Rip by AngelOfTrue
Формат видео: AVI
Видео: Xvid, 704x384, 23.98fps, 2042Kbps
Аудио: Dolby AC3, 48000Hz, stereo, 192kbps--Дополнительная информация: -Релиз группы All Films -Приятного вам просмотра!-

MediaInfo

Format : AVI
Format/Info : Audio Video Interleave
File size : 1.46 GiB
Duration : 1h 32mn
Overall bit rate : 2 243 Kbps
Writing application : VirtualDubMod 1.5.10.3 | www.virtualdub-fr.org || (build 2550/release)
Writing library : VirtualDubMod build 2550/release
Video
ID : 0
Format : MPEG-4 Visual
Format profile : Advanced [email protected]
Format settings, BVOP : 2
Format settings, QPel : No
Format settings, GMC : No warppoints
Format settings, Matrix : Custom
Codec ID : XVID
Codec ID/Hint : XviD
Duration : 1h 32mn
Bit rate : 2 042 Kbps
Width : 704 pixels
Height : 384 pixels
Display aspect ratio : 16:9
Frame rate : 23.976 fps
Color space : YUV
Chroma subsampling : 4:2:0
Bit depth : 8 bits
Scan type : Progressive
Compression mode : Lossy
Bits/(Pixel*Frame) : 0.315
Stream size : 1.33 GiB (91%)
Writing library : XviD 1.2.1 (UTC 2008-12-04)
Audio
ID : 1
Format : AC-3
Format/Info : Audio Coding 3
Mode extension : CM (complete main)
Codec ID : 2000
Duration : 1h 32mn
Bit rate mode : Constant
Bit rate : 192 Kbps
Channel(s) : 2 channels
Channel positions : Front: L R
Sampling rate : 48.0 KHz
Bit depth : 16 bits
Compression mode : Lossy
Stream size : 128 MiB (9%)
Alignment : Split accross interleaves
Interleave, duration : 42 ms (1.00 video frame)
Interleave, preload duration : 500 ms

Скриншоты

If your ratio falls below 0.3, you will not be able to download Torrents! More about the rating.

[erzsebet.pl].t52237.torrent
Torrent: Registered   [ 2017-12-11 02:36 ]

Download .torrent

Download

15 KB

Status: checked
Completed: 16 times
Size: 1.46 GB
terms.php

#1

11-Dec-2017 01:19

[Profile]  [PM] 
Display posts:    

You cannot post new topics in this forum
You cannot reply to topics in this forum
You cannot edit your posts in this forum
You cannot delete your posts in this forum
You cannot vote in polls in this forum
You cannot attach files in this forum
You can download files in this forum
User agreement
For copyright holders
Advertise on this site

Скачайте на халяву через торрент на трекере erzsebet.pl

!ATTENTION!
The site does not give electronic versions of products, and is engaged only in a collecting and cataloguing of the references sent and published at a forum by our readers. If you are the legal owner of any submitted material and do not wish that the reference to it was in our catalogue, contact us and we shall immediately remove her. Files for an exchange on tracker are given by users of a site, and the administration does not bear the responsibility for their maintenance. The request to not fill in the files protected by copyrights, and also files of the illegal maintenance!