Жизнь холостяка / Les Arrivistes / La rabouilleuse / The Opportunists (Луи Дакен / Louis Daquin) [1960, Франция, ГДР, драма, экранизация, Telesync > DVD] [Советская прокатная копия] Dub (к/с Горького)

DL-List and Torrent activity
Size:  3.9 GB   |    Registered:  2 years 10 months   |    Completed:  16 times
Seeders:  2  
 
   
 
 

Max Levien ®

Longevity:
2 years 10 months
Posts:
20374

[Quote] 

Жизнь холостяка / Les Arrivistes / La rabouilleuse / The Opportunists / Советская прокатная копия
Страна: Франция, ГДР
Жанр: драма, экранизация
Год выпуска: 1960
Продолжительность: 01:33:00
Перевод: Профессиональный (дублированный) Киностудия им. М. Горького
Субтитры: нет
Режиссер: Луи Дакен / Louis Daquin
В ролях: Жан-Клод Паскаль, Мадлен Робинсон, Герхард Бинерт, Эрика Пеликовски, Эккехард Шаль, Харри Рибауэр, Иван Мальре, Клара Гансар, Кати Секели, Вернер Диссель, Адольф Петер Хоффманн, Ханс Ульрих Лауфер, Ирма Мюнх
Описание: По мотивам одноименного романа Оноре де Бальзака.
События разворачиваются в 1820-ые годы во Франции в период Реставрации. Аристократ Филипп Бридо, служивший в прошлом офицером в войсках Наполеона, не слишком доволен своей карьерой. Он пытается подняться по служебной лестнице, завязав роман с влиятельной дамой Флорой Бразье…
Доп. информация: В данной раздаче представлена сокращенная версия фильма, вышедшая в советском кинопрокате в 1962 году. Продолжительность полной версии составляет 112 минут.
Качество видео: Telesync
Формат видео: DVD-Video
Видео: PAL 4:3 (704x576) VBR ~5525 kbps
Аудио: AC3, 48 kHz, 256 kbps, 2 ch

MediaInfo

General
Complete name : J:\раздачи\Les arrivistes\VIDEO_TS\VIDEO_TS.BUP
Format : DVD Video
Format profile : Menu
File size : 12.0 KiB
Video
ID : 0xE0
Format : MPEG Video
Format version : Version 2
Bit rate mode : Variable
Width : 704 pixels
Height : 576 pixels
Display aspect ratio : 4:3
Frame rate : 25.000 fps
Text
Format : RLE
Format/Info : Run-length encoding
Resolution : 2 bits
General
Complete name : J:\раздачи\Les arrivistes\VIDEO_TS\VIDEO_TS.IFO
Format : DVD Video
Format profile : Menu
File size : 12.0 KiB
Video
ID : 0xE0
Format : MPEG Video
Format version : Version 2
Bit rate mode : Variable
Width : 704 pixels
Height : 576 pixels
Display aspect ratio : 4:3
Frame rate : 25.000 fps
Text
Format : RLE
Format/Info : Run-length encoding
Resolution : 2 bits
General
Complete name : J:\раздачи\Les arrivistes\VIDEO_TS\VIDEO_TS.VOB
Format : MPEG-PS
File size : 64.0 KiB
Duration : 40ms
Overall bit rate : 13.1 Mbps
Video
ID : 224 (0xE0)
Format : MPEG Video
Format version : Version 2
Format profile : [email protected]
Format settings, BVOP : No
Format settings, Matrix : Default
Duration : 40ms
Bit rate mode : Variable
Bit rate : 9 078 Kbps
Width : 704 pixels
Height : 576 pixels
Display aspect ratio : 4:3
Frame rate : 25.000 fps
Standard : PAL
Resolution : 8 bits
Colorimetry : 4:2:0
Scan type : Interlaced
Scan order : Top Field First
Bits/(Pixel*Frame) : 0.895
Stream size : 44.3 KiB (69%)
Text
ID : 32 (0x20)
Format : RLE
Format/Info : Run-length encoding
Menu
General
Complete name : J:\раздачи\Les arrivistes\VIDEO_TS\VTS_01_0.BUP
Format : DVD Video
Format profile : Program
File size : 64.0 KiB
Video
ID : 0xE0
Format : MPEG Video
Format version : Version 2
Bit rate mode : Variable
Width : 704 pixels
Height : 576 pixels
Display aspect ratio : 4:3
Frame rate : 25.000 fps
Audio
ID : 0x80
Format : AC-3
Format/Info : Audio Coding 3
Channel(s) : 2 channels
Sampling rate : 48.0 KHz
Menu #1
List (Audio) : 0
Menu #2
General
Complete name : J:\раздачи\Les arrivistes\VIDEO_TS\VTS_01_0.IFO
Format : DVD Video
Format profile : Program
File size : 64.0 KiB
Video
ID : 0xE0
Format : MPEG Video
Format version : Version 2
Bit rate mode : Variable
Width : 704 pixels
Height : 576 pixels
Display aspect ratio : 4:3
Frame rate : 25.000 fps
Audio
ID : 0x80
Format : AC-3
Format/Info : Audio Coding 3
Channel(s) : 2 channels
Sampling rate : 48.0 KHz
Menu #1
List (Audio) : 0
Menu #2
General
Complete name : J:\раздачи\Les arrivistes\VIDEO_TS\VTS_01_1.VOB
Format : MPEG-PS
File size : 1 023 MiB
Duration : 23mn 55s
Overall bit rate : 5 979 Kbps
Video
ID : 224 (0xE0)
Format : MPEG Video
Format version : Version 2
Format profile : [email protected]
Format settings, BVOP : Yes
Format settings, Matrix : Default
Duration : 23mn 55s
Bit rate mode : Variable
Bit rate : 5 485 Kbps
Nominal bit rate : 9 579 Kbps
Width : 704 pixels
Height : 576 pixels
Display aspect ratio : 4:3
Frame rate : 25.000 fps
Standard : PAL
Resolution : 8 bits
Colorimetry : 4:2:0
Scan type : Interlaced
Scan order : Top Field First
Bits/(Pixel*Frame) : 0.541
Stream size : 939 MiB (92%)
Audio
ID : 128 (0x80)
Format : AC-3
Format/Info : Audio Coding 3
Duration : 23mn 55s
Bit rate mode : Constant
Bit rate : 256 Kbps
Channel(s) : 2 channels
Channel positions : L R
Sampling rate : 48.0 KHz
Video delay : -80ms
Stream size : 43.8 MiB (4%)
Menu
General
Complete name : J:\раздачи\Les arrivistes\VIDEO_TS\VTS_01_2.VOB
Format : MPEG-PS
File size : 1 023 MiB
Duration : 23mn 50s
Overall bit rate : 6 001 Kbps
Video
ID : 224 (0xE0)
Format : MPEG Video
Format version : Version 2
Format profile : [email protected]
Format settings, BVOP : Yes
Format settings, Matrix : Default
Duration : 23mn 50s
Bit rate mode : Variable
Bit rate : 5 506 Kbps
Nominal bit rate : 9 579 Kbps
Width : 704 pixels
Height : 576 pixels
Display aspect ratio : 4:3
Frame rate : 25.000 fps
Standard : PAL
Resolution : 8 bits
Colorimetry : 4:2:0
Scan type : Interlaced
Scan order : Top Field First
Bits/(Pixel*Frame) : 0.543
Stream size : 939 MiB (92%)
Audio
ID : 128 (0x80)
Format : AC-3
Format/Info : Audio Coding 3
Duration : 23mn 50s
Bit rate mode : Constant
Bit rate : 256 Kbps
Channel(s) : 2 channels
Channel positions : L R
Sampling rate : 48.0 KHz
Video delay : -272ms
Stream size : 43.7 MiB (4%)
Menu
General
Complete name : J:\раздачи\Les arrivistes\VIDEO_TS\VTS_01_3.VOB
Format : MPEG-PS
File size : 1 023 MiB
Duration : 23mn 46s
Overall bit rate : 6 020 Kbps
Video
ID : 224 (0xE0)
Format : MPEG Video
Format version : Version 2
Format profile : [email protected]
Format settings, BVOP : Yes
Format settings, Matrix : Default
Duration : 23mn 46s
Bit rate mode : Variable
Bit rate : 5 525 Kbps
Nominal bit rate : 9 579 Kbps
Width : 704 pixels
Height : 576 pixels
Display aspect ratio : 4:3
Frame rate : 25.000 fps
Standard : PAL
Resolution : 8 bits
Colorimetry : 4:2:0
Scan type : Interlaced
Scan order : Top Field First
Bits/(Pixel*Frame) : 0.545
Stream size : 939 MiB (92%)
Audio
ID : 128 (0x80)
Format : AC-3
Format/Info : Audio Coding 3
Duration : 23mn 45s
Bit rate mode : Constant
Bit rate : 256 Kbps
Channel(s) : 2 channels
Channel positions : L R
Sampling rate : 48.0 KHz
Video delay : -320ms
Stream size : 43.5 MiB (4%)
Menu
General
Complete name : J:\раздачи\Les arrivistes\VIDEO_TS\VTS_01_4.VOB
Format : MPEG-PS
File size : 927 MiB
Duration : 21mn 28s
Overall bit rate : 6 035 Kbps
Video
ID : 224 (0xE0)
Format : MPEG Video
Format version : Version 2
Format profile : [email protected]
Format settings, BVOP : Yes
Format settings, Matrix : Default
Duration : 21mn 28s
Bit rate mode : Variable
Bit rate : 5 539 Kbps
Nominal bit rate : 9 579 Kbps
Width : 704 pixels
Height : 576 pixels
Display aspect ratio : 4:3
Frame rate : 25.000 fps
Standard : PAL
Resolution : 8 bits
Colorimetry : 4:2:0
Scan type : Interlaced
Scan order : Top Field First
Bits/(Pixel*Frame) : 0.546
Stream size : 851 MiB (92%)
Audio
ID : 128 (0x80)
Format : AC-3
Format/Info : Audio Coding 3
Duration : 21mn 28s
Bit rate mode : Constant
Bit rate : 256 Kbps
Channel(s) : 2 channels
Channel positions : L R
Sampling rate : 48.0 KHz
Video delay : -352ms
Stream size : 39.3 MiB (4%)
Menu

Скриншот c названием фильма

If your ratio falls below 0.3, you will not be able to download Torrents! More about the rating.

[erzsebet.pl].t52244.torrent
Torrent: Registered   [ 2017-12-11 02:36 ]

Download .torrent

Download

20 KB

Status: checked
Completed: 16 times
Size: 3.9 GB
terms.php

#1

11-Dec-2017 01:18

[Profile]  [PM] 
Display posts:    

You cannot post new topics in this forum
You cannot reply to topics in this forum
You cannot edit your posts in this forum
You cannot delete your posts in this forum
You cannot vote in polls in this forum
You cannot attach files in this forum
You can download files in this forum
User agreement
For copyright holders
Advertise on this site

Скачайте на халяву через торрент на трекере erzsebet.pl

!ATTENTION!
The site does not give electronic versions of products, and is engaged only in a collecting and cataloguing of the references sent and published at a forum by our readers. If you are the legal owner of any submitted material and do not wish that the reference to it was in our catalogue, contact us and we shall immediately remove her. Files for an exchange on tracker are given by users of a site, and the administration does not bear the responsibility for their maintenance. The request to not fill in the files protected by copyrights, and also files of the illegal maintenance!