Форт Боуи / Fort Bowie (Ховард В. Коч / Howard W. Koch) [1958, США, вестерн, мелодрама, боевик, DVDRip] AVO (Василий Горчаков)

Reply to topic
DL-List and Torrent activity
Size:  1.36 GB   |    Registered:  3 years 1 month   |    Completed:  16 times

Seeder not seen: Never

 
   
 
 
Author Message

erzsebet.org ®

Longevity: 3 years 1 month

Posts: 47596

Post 02-Dec-2017 16:55

[Quote]

Форт Боуи / Fort Bowie
Страна: США
Жанр: вестерн, мелодрама, боевик
Год выпуска: 1958
Продолжительность: 01:21:08
Перевод: Авторский (одноголосый закадровый) Василий Горчаков
Субтитры: нет
Режиссер: Ховард В. Коч / Howard W. Koch
В ролях: Бен Джонсон, Жан Харрисон, Кент Тейлор, Яна Дави, Питер Мамакос, Ларри Чэнс, Дж. Йен Дуглас, Джерри Фрэнк, Барбара Парри, Эд Хинтон
Описание: Командующий фортом Боуи полковник Гарретт, подозревая, что у его жены Элисон роман с красивым капитаном Томпсоном, посылает его на опасное задание, с целью попытаться убедить индейского вождя Викторио прекратить нападения на белых поселенцев и солдат.
Сэмпл: http://multi-up.com/1161948
Качество видео: DVDRip (Исходник DVD-5 / KinoZal)
Формат видео: AVI
Видео: XviD, 704x304, (1,85:1), 23,976 fps, 2200 Кбит/с, 8 бит, 0.33 bit/pixel
Аудио: Русский (АС3, 2 ch (Front: L R), 48,0 KHz, 192 Kbps)

MediaInfo

Общее
Полное имя : F:\Видеофильмы\В и д е о\Форт Боуи (вестерн боевик 1958 год).avi
Формат : AVI
Формат/Информация : Audio Video Interleave
Размер файла : 1,36 Гбайт
Продолжительность : 1 ч. 21 м.
Общий поток : 2401 Кбит/сек
Программа кодирования : VirtualDubMod 1.5.10.3 | www.virtualdub-fr.org || (build 2550/release)
Библиотека кодирования : VirtualDubMod build 2550/release
Видео
Идентификатор : 0
Формат : MPEG-4 Visual
Профиль формата : Advanced [email protected]
Параметр BVOP формата : 2
Параметр QPel формата : Нет
Параметр GMC формата : Без точки перехода
Параметр матрицы формата : Выборочная
Идентификатор кодека : XVID
Идентификатор кодека/Подсказка : XviD
Продолжительность : 1 ч. 21 м.
Битрейт : 2200 Кбит/сек
Ширина : 704 пикселя
Высота : 384 пикселя
Соотношение сторон : 1,85:1
Частота кадров : 23,976 (24000/1001) кадра/сек
Цветовое пространство : YUV
Субдискретизация насыщенности : 4:2:0
Битовая глубина : 8 бит
Тип развёртки : Прогрессивная
Метод сжатия : С потерями
Бит/(Пиксели*Кадры) : 0.339
Размер потока : 1,25 Гбайт (92%)
Библиотека кодирования : XviD 73
Аудио
Идентификатор : 1
Формат : AC-3
Формат/Информация : Audio Coding 3
Расширение режима : CM (complete main)
Параметр Endianness формата : Big
Идентификатор кодека : 2000
Продолжительность : 1 ч. 21 м.
Вид битрейта : Постоянный
Битрейт : 192 Кбит/сек
Каналы : 2 канала
Расположение каналов : Front: L R
Частота : 48,0 КГц
Частота кадров : 31,250 кадров/сек (1536 spf)
Метод сжатия : С потерями
Размер потока : 111 Мбайт (8%)
Выравнивание : Разделение по промежуткам
Продолжительность промежутка : 42 мс. (1,00 видеокадр)
Время предзагрузки промежутка : 500 мс.

Скриншот c названием фильма

Скриншоты

If your ratio falls below 0.3, you will not be able to download Torrents! More about the rating.

[erzsebet.pl].t524.torrent
Torrent: Registered [ 2017-12-02 16:56 ] · BA095E8B9DCB55A9A2A6E813F15FE70BDA8D0E91

Download .torrent

Download

14 KB

Status: checked
Completed: 16 times
Size: 1.36 GB
terms.php
[Profile] [PM]
Display posts:    
Reply to topic

Current time is: 24-Jan 15:37

All times are UTC ± 0



You cannot post new topics in this forum
You cannot reply to topics in this forum
You cannot edit your posts in this forum
You cannot delete your posts in this forum
You cannot vote in polls in this forum
You cannot attach files in this forum
You can download files in this forum