Джим, первый / Последний стрелок / Jim il primo / The Last Gun (Серджо Бергонцелли / Sergio Bergonzelli) [1964, Италия, вестерн, приключения, DVDRip] VO (Вадим Назаров)

Reply to topic
DL-List and Torrent activity
Size:  1.38 GB   |    Registered:  3 years 1 month   |    Completed:  16 times

Seeder not seen: Never

 
   
 
 
Author Message

erzsebet.org ®

Longevity: 3 years 1 month

Posts: 47596

Post 02-Dec-2017 16:55

[Quote]

Джим, первый / Последний стрелок / Jim il primo / The Last Gun
Страна: Италия
Жанр: вестерн, приключения
Год выпуска: 1964
Продолжительность: 01:36:30
Перевод: Одноголосый закадровый Вадим Назаров
Субтитры: нет
Режиссер: Серджо Бергонцелли / Sergio Bergonzelli
В ролях: Кэмерон Митчелл, Карл Мёнер, Китти Карвер, Ливио Лоренцон, Марианджела Джордано, Люк Аарон, Анна Лина Алберти
Описание: Джим Харт, отставной стрелок, он поклялся больше не убивать. Но сдержит ли он своё обещание, если его невеста и весь город в опасности...?
Сэмпл: http://multi-up.com/1161945
Качество видео: DVDRip (Исходник DVD-5 / KinoZal)
Формат видео: AVI
Видео: XviD, 624x352, (16:9), 23,976 fps, 1853 Кбит/с, 8 бит, 0.35 bit/pixel
Аудио: Русский (АС3, 2 ch (Front: L R), 48,0 KHz, 192 Kbps)

MediaInfo

Общее
Полное имя : F:\Видеофильмы\В и д е о\Джим, первый (вестерн, приключения 1964 год).avi
Формат : AVI
Формат/Информация : Audio Video Interleave
Размер файла : 1,38 Гбайт
Продолжительность : 1 ч. 36 м.
Общий поток : 2054 Кбит/сек
Программа кодирования : VirtualDubMod 1.5.10.3 | www.virtualdub-fr.org || (build 2550/release)
Библиотека кодирования : VirtualDubMod build 2550/release
Видео
Идентификатор : 0
Формат : MPEG-4 Visual
Профиль формата : Advanced [email protected]
Параметр BVOP формата : 2
Параметр QPel формата : Нет
Параметр GMC формата : Без точки перехода
Параметр матрицы формата : Выборочная
Идентификатор кодека : XVID
Идентификатор кодека/Подсказка : XviD
Продолжительность : 1 ч. 36 м.
Битрейт : 1853 Кбит/сек
Ширина : 624 пикселя
Высота : 352 пикселя
Соотношение сторон : 16:9
Частота кадров : 23,976 (24000/1001) кадра/сек
Цветовое пространство : YUV
Субдискретизация насыщенности : 4:2:0
Битовая глубина : 8 бит
Тип развёртки : Прогрессивная
Метод сжатия : С потерями
Бит/(Пиксели*Кадры) : 0.352
Размер потока : 1,25 Гбайт (90%)
Библиотека кодирования : XviD 73
Аудио
Идентификатор : 1
Формат : AC-3
Формат/Информация : Audio Coding 3
Расширение режима : CM (complete main)
Параметр Endianness формата : Big
Идентификатор кодека : 2000
Продолжительность : 1 ч. 36 м.
Вид битрейта : Постоянный
Битрейт : 192 Кбит/сек
Каналы : 2 канала
Расположение каналов : Front: L R
Частота : 48,0 КГц
Частота кадров : 31,250 кадров/сек (1536 spf)
Метод сжатия : С потерями
Размер потока : 133 Мбайт (9%)
Выравнивание : Разделение по промежуткам
Продолжительность промежутка : 42 мс. (1,00 видеокадр)
Время предзагрузки промежутка : 500 мс.

Скриншот c названием фильма

Скриншоты

If your ratio falls below 0.3, you will not be able to download Torrents! More about the rating.

[erzsebet.pl].t525.torrent
Torrent: Registered [ 2017-12-02 16:56 ] · 86DB3CBDBC525EF7C37D0374282F6FFD08DFF090

Download .torrent

Download

14 KB

Status: checked
Completed: 16 times
Size: 1.38 GB
terms.php
[Profile] [PM]
Display posts:    
Reply to topic

Current time is: 28-Jan 08:08

All times are UTC ± 0



You cannot post new topics in this forum
You cannot reply to topics in this forum
You cannot edit your posts in this forum
You cannot delete your posts in this forum
You cannot vote in polls in this forum
You cannot attach files in this forum
You can download files in this forum