Сделано в Италии / Made in Italy / À l'italienne (Нанни Лой / Nanni Loy) [1965, Италия, Франция, Комедия, TVRip-Avc] [Полная версия] MVO + Original Ita

Reply to topic
DL-List and Torrent activity
Size:  1.41 GB   |    Registered:  3 years 1 month   |    Completed:  16 times

Seeder not seen: Never

 
   
 
 
Author Message

erzsebet.org ®

Longevity: 3 years 1 month

Posts: 47596

Post 02-Dec-2017 16:55

[Quote]

Сделано в Италии / Made in Italy / À l'italienne / [Полная версия]
Жанр: Комедия
Страна: Италия, Франция
Студия: Documento Film, Orsay Films
Год выпуска: 1965
Продолжительность: 02:06:54
Перевод: Профессиональный (многоголосый закадровый) + VO (CCK+) (непереведённые фрагменты)
Субтитры: нет
Оригинальная аудиодорожка: итальянский
Режиссер: Нанни Лой / Nanni Loy
В ролях:
Ренцо Мариньяно / Renzo Marignano ... The Snob (segment '1 'Usi e costumi', эпизод 1')
Клаудио Гора / Claudio Gora ... Bored Diner's Husband (segment '1 'Usi e costumi', эпизод 1')
Ландо Будзанка / Lando Buzzanca ... Giulio (segment '1 'Usi e costumi', эпизод 2')
Йоланда Модио / Jolanda Modio ... Rosalia (segment '1 'Usi e costumi', эпизод 2')
Вальтер Кьяри / Walter Chiari ... Enrico (segment '1 'Usi e costumi', эпизод 3')
Леа Массари / Lea Massari ... Monica (segment '1 'Usi e costumi', эпизод 3')
Джино Муччи / Gino Mucci ... Luigino (segment '2 'Il Lavoro', эпизод 1')
Милена Вукотич / Milena Vukotic ... His Wife (segment '2 'Il Lavoro', эпизод 1')
Альдо Фабрици / Aldo Fabrizi ... Piras, Gaviro's Father (segment '2 'Il Lavoro', эпизод 2')
Нино Кастельнуово / Nino Castelnuovo ... Dr. Gavino Piras (segment '2 'Il Lavoro', эпизод 2')
Вирна Лизи / Virna Lisi ... Virginia (segment '3 'La Donna', эпизод 1')
Джулио Бозетти / Giulio Bosetti ... Renato (segment '3 'La Donna', эпизод 1')
Катрин Спаак / Catherine Spaak ... Carolina (segment '3 'La Donna', эпизод 2')
Фабрицио Морони / Fabrizio Moroni ... Gianremo (segment '3 'La Donna', эпизод 2')
Сильва Кошина / Sylva Koscina ... Diana (segment '3 'La Donna', эпизод 3')
Жан Сорель / Jean Sorel ... Orlando (segment '3 'La Donna', эпизод 3')
Нино Манфреди / Nino Manfredi ... Attilio Lamborecchia (segment '4 'Cittadini, stato e chiesa', эпизод 1')
Карло Пизакане / Carlo Pisacane ... The Postman (segment '4 'Cittadini, stato e chiesa', эпизод 1')
Пеппино Де Филиппо / Peppino De Filippo ... Mimi (segment '5 'La Famiglia', эпизод 1')
Текла Скарано / Tecla Scarano ... His Mother (segment "5 'La Famiglia', episode 1")
Альберто Сорди / Alberto Sordi ... Silvio, Errant Husband (segment '5 'La Famiglia', эпизод 2')
Росселла Фальк / Rossella Falk ... Erminia, His Wife (segment '5 'La Famiglia', эпизод 2')
Клоди Ланж / Claudie Lange ... Silvio's Mistress (segment '5 'La Famiglia', эпизод 2')
Анна Маньяни / Anna Magnani ... Adelina (segment '5 'La Famiglia', эпизод 3')
Андреа Кекки / Andrea Checchi ... Her Husband (segment '5 'La Famiglia', эпизод 3')
Джампьеро Альбертини / Giampiero Albertini ... Immigrant (segment 6 'Final episode')
Альдо Буфи Ланди / Aldo Bufi Landi ... Immigrant (segment 6 'Final episode')
Описание: Прекрасный комедийный фильм, состоящий из пяти основных новелл: "Обычаи и традиции", "Работа", "Женщина", "Граждане, государство и церковь", "Семья" и заключительной шестой финальной новеллы - "Иммигранты".
В них показано несколько смешных и грустных историй из жизни простых итальянцев, представлена сатирическая картина итальянского общества 60-х годов XX века.
Дополнительная информация:
Совместный Релиз:
Исходник найден в сети.
Представленный релиз - результат творческого сотрудничества коллектива, представляющего 3 разных сайта: erzsebet (ССК+), Мувитролль (Urasik) и Fenix (pmv). Большое спасибо всем им, принимавшим участие в этом проекте. Надеемся на дальнейшее плодотворное сотрудничество и выпуск новых релизов для всех, кто интересуется и любит кино.
Большое спасибо за:
- рип и вставку озвученных фрагментов - pmv
- русскую аудиодорожку - Igor215, Rusalochka (Феникс)
- перевод пропущенных фрагментов и синхронизацию звука – Urasik
- озвучивание фрагментов, отсутствующих в MVO – ССК+
* В данной раздаче представлена полная версия фильма, которая почти на 30 минут длительнее по времени версии, раздаваемой ранее на Рутрекере -http://erzsebet.org/forum/viewtopic.php?t=1353745. Её продолжительность - 01:37:47.
* В начале фильма звучит песня Луиса Энрикеса Бакалова (Luis Enríquez Bacalov) "Только ты" в исполнении упоминаемой в фильме итальянской певицы Риты Павоне - https://www.youtube.com/watch?v=doh352_3FSw
* Платья, которые носила Вирна Лизи, были разработаны известным итальянским кутюрье -дизайнером одежды, основателем модного дома - Валентино (Valentino).
* Премьера фильма в США, выпущенного на DVD, состоялась 1 октября 2013 года. Эта версия не полная, продолжительностью 01:46:00, почти на 20 минут короче версии фильма, представленной в данной раздаче.
* Поскольку исходная запись была сделана с телевизионного итальянского канала, изредка внизу экрана появляется «бегущая строка» с информацией. На одном из представленных скринов можно увидеть её изображение.
IMDb = 6,8/10 (157) - http://www.imdb.com/title/tt0061934/
Кинопоиск = - (42) - https://www.kinopoisk.ru/film/25680/
ВНИМАНИЕ!!! РИП ФОРМАТА mkv (кодек H.264) ВОСПРОИЗВОДИТСЯ НЕ НА ВСЕХ БЫТОВЫХ ВИДЕОПЛЕЕРАХ!!!
ПРОСЬБА к СКАЧАВШИМ. НЕ УХОДИТЕ С РАЗДАЧИ, ПОМОГИТЕ ДРУГИМ СКАЧАТЬ!!!
Качество видео: TVRip-AVC
Формат видео: MKV
Видео: AVC (H264), [email protected] (2.35:1), 25 fps, 1200 kb/s, 0.175 Bits/Pixel
Аудио: AC3, 48 KHz, stereo (2 ch), 192 kbps - русский
Аудио 2: AC3, 48 KHz, stereo (2 ch), 192 kbps - итальянский

MediaInfo

General
Unique ID : 206413968595078571543502971947838592809 (0x9B49E261DBDA82969AFF03743CE3D729)
Complete name : D:\torrents\Made in Iitaly (1965, rus_MVO+ita).mkv
Format : Matroska
Format version : Version 4 / Version 2
File size : 1.41 GiB
Duration : 2 h 6 min
Overall bit rate : 1 586 kb/s
Encoded date : UTC 2017-07-17 09:58:50
Writing application : mkvmerge v13.0.0 ('The Juggler') 64bit
Writing library : libebml v1.3.4 + libmatroska v1.4.5
Video
ID : 1
Format : AVC
Format/Info : Advanced Video Codec
Format profile : [email protected]
Format settings, CABAC : Yes
Format settings, ReFrames : 16 frames
Codec ID : V_MPEG4/ISO/AVC
Duration : 2 h 6 min
Bit rate : 1 200 kb/s
Width : 672 pixels
Height : 408 pixels
Display aspect ratio : 2.35:1
Original display aspect ratio : 16:10
Frame rate mode : Constant
Frame rate : 25.000 FPS
Color space : YUV
Chroma subsampling : 4:2:0
Bit depth : 8 bits
Scan type : Progressive
Bits/(Pixel*Frame) : 0.175
Stream size : 1.06 GiB (76%)
Writing library : x264 core 146 r2538 121396c
Encoding settings : cabac=1 / ref=16 / deblock=1:0:0 / analyse=0x3:0x133 / me=umh / subme=10 / psy=1 / psy_rd=1.00:0.00 / mixed_ref=1 / me_range=24 / chroma_me=1 / trellis=2 / 8x8dct=1 / cqm=0 / deadzone=21,11 / fast_pskip=1 / chroma_qp_offset=-2 / threads=48 / lookahead_threads=3 / sliced_threads=0 / nr=0 / decimate=1 / interlaced=0 / bluray_compat=0 / constrained_intra=0 / bframes=8 / b_pyramid=2 / b_adapt=2 / b_bias=0 / direct=3 / weightb=1 / open_gop=0 / weightp=2 / keyint=250 / keyint_min=25 / scenecut=40 / intra_refresh=0 / rc_lookahead=60 / rc=2pass / mbtree=1 / bitrate=1200 / ratetol=1.0 / qcomp=0.60 / qpmin=0 / qpmax=69 / qpstep=4 / cplxblur=20.0 / qblur=0.5 / ip_ratio=1.40 / aq=1:1.00
Language : Italian
Default : Yes
Forced : No
Audio #1
ID : 2
Format : AC-3
Format/Info : Audio Coding 3
Mode extension : CM (complete main)
Format settings, Endianness : Big
Codec ID : A_AC3
Duration : 2 h 6 min
Bit rate mode : Constant
Bit rate : 192 kb/s
Channel(s) : 2 channels
Channel positions : Front: L R
Sampling rate : 48.0 kHz
Frame rate : 31.250 FPS (1536 spf)
Bit depth : 16 bits
Compression mode : Lossy
Stream size : 174 MiB (12%)
Language : Russian
Default : Yes
Forced : No
Audio #2
ID : 3
Format : AC-3
Format/Info : Audio Coding 3
Mode extension : CM (complete main)
Format settings, Endianness : Big
Codec ID : A_AC3
Duration : 2 h 6 min
Bit rate mode : Constant
Bit rate : 192 kb/s
Channel(s) : 2 channels
Channel positions : Front: L R
Sampling rate : 48.0 kHz
Frame rate : 31.250 FPS (1536 spf)
Bit depth : 16 bits
Compression mode : Lossy
Stream size : 174 MiB (12%)
Language : Italian
Default : No
Forced : No

Скриншот c названием фильма

МОИ РАЗДАЧИ НА РУТРЕКЕРЕ: http://erzsebet.org/forum/tracker.php?rid=27390064

If your ratio falls below 0.3, you will not be able to download Torrents! More about the rating.

[erzsebet.pl].t529.torrent
Torrent: Registered [ 2017-12-02 16:56 ] · C8F30EB6A0B37A0ED6D77500CB8FC74AC8201BD1

Download .torrent

Download

15 KB

Status: checked
Completed: 16 times
Size: 1.41 GB
terms.php
[Profile] [PM]
Display posts:    
Reply to topic

Current time is: 17-Jan 02:58

All times are UTC ± 0



You cannot post new topics in this forum
You cannot reply to topics in this forum
You cannot edit your posts in this forum
You cannot delete your posts in this forum
You cannot vote in polls in this forum
You cannot attach files in this forum
You can download files in this forum