Мстители / The Revengers / Los Vengadores (Дэниэл Манн / Daniel Mann) [1972, США, Мексика, вестерн, боевик, драма, DVDRip] AVO (Сергей Визгунов)

Reply to topic
DL-List and Torrent activity
Size:  1.37 GB   |    Registered:  3 years 1 month   |    Completed:  16 times

Seeder not seen: Never

 
   
 
 
Author Message

erzsebet.org ®

Longevity: 3 years 1 month

Posts: 47596

Post 02-Dec-2017 16:55

[Quote]

Мстители / The Revengers / Los Vengadores
Страна: США, Мексика
Жанр: вестерн, драма
Год выпуска: 1972
Продолжительность: 01:43:50
Перевод: Авторский (одноголосый закадровый) Сергей Визгунов
Субтитры: нет
Режиссер: Дэниэл Манн / Daniel Mann
В ролях: Уильям Холден, Эрнест Боргнайн, Вуди Строуд, Роже Анен, Рейнхард Коллдехофф, Хорхе Луке, Хорхе Мартинес де Ойос, Артур Ханникат, Уоррен Вэндерс, Ларри Пеннелл
Описание: Ветеран гражданской войны, а ныне фермер Джон Бенедикт, вернувшись с охоты домой, обнаруживает, что его жену и детей убила банда безжалостных негодяев. Бенедикт собирает отряд из шести осуждённых и устремляется в погоню, желая отмщения. Но вскоре он понимает, что его новые «друзья» непредсказуемы и опасны не менее, чем те, кого они ищут. Выполнят ли они задание или добавят имя Бенедикта в список своих убийств?..
Сэмпл: http://multi-up.com/1161806
Качество видео: DVDRip (Исходник DVD5 / KinoZal)
Формат видео: AVI
Видео: XviD 73, 688x304, (2,35:1), 25,000 fps, 1691 Кбит/с, 8 бит, 0.32 bit/pixel
Аудио: Русский (АС3, 2 ch (Front: L R), 48,0 KHz, 192 Kbps)

MediaInfo

Общее
Полное имя : F:\Видеофильмы\В и д е о\Мстители (боевик вестерн драма 1972 год).avi
Формат : AVI
Формат/Информация : Audio Video Interleave
Размер файла : 1,37 Гбайт
Продолжительность : 1 ч. 43 м.
Общий поток : 1892 Кбит/сек
Программа кодирования : VirtualDubMod 1.5.10.3 | www.virtualdub-fr.org || (build 2550/release)
Библиотека кодирования : VirtualDubMod build 2550/release
Видео
Идентификатор : 0
Формат : MPEG-4 Visual
Профиль формата : Advanced [email protected]
Параметр BVOP формата : 2
Параметр QPel формата : Нет
Параметр GMC формата : Без точки перехода
Параметр матрицы формата : Выборочная
Идентификатор кодека : XVID
Идентификатор кодека/Подсказка : XviD
Продолжительность : 1 ч. 43 м.
Битрейт : 1691 Кбит/сек
Ширина : 688 пикселей
Высота : 304 пикселя
Соотношение сторон : 2,25:1
Частота кадров : 25,000 кадров/сек
Цветовое пространство : YUV
Субдискретизация насыщенности : 4:2:0
Битовая глубина : 8 бит
Тип развёртки : Прогрессивная
Метод сжатия : С потерями
Бит/(Пиксели*Кадры) : 0.323
Размер потока : 1,23 Гбайт (89%)
Библиотека кодирования : XviD 73
Аудио
Идентификатор : 1
Формат : AC-3
Формат/Информация : Audio Coding 3
Расширение режима : CM (complete main)
Параметр Endianness формата : Big
Идентификатор кодека : 2000
Продолжительность : 1 ч. 43 м.
Вид битрейта : Постоянный
Битрейт : 192 Кбит/сек
Каналы : 2 канала
Расположение каналов : Front: L R
Частота : 48,0 КГц
Частота кадров : 31,250 кадров/сек (1536 spf)
Метод сжатия : С потерями
Размер потока : 143 Мбайт (10%)
Выравнивание : Разделение по промежуткам
Продолжительность промежутка : 40 мс. (1,00 видеокадр)
Время предзагрузки промежутка : 500 мс.

Скриншот c названием фильма

Скриншоты

If your ratio falls below 0.3, you will not be able to download Torrents! More about the rating.

[erzsebet.pl].t531.torrent
Torrent: Registered [ 2017-12-02 16:56 ] · 66C9EC9FE0AED47233564AC8B56207295AE6A7ED

Download .torrent

Download

14 KB

Status: checked
Completed: 16 times
Size: 1.37 GB
terms.php
[Profile] [PM]
Display posts:    
Reply to topic

Current time is: 17-Jan 03:09

All times are UTC ± 0



You cannot post new topics in this forum
You cannot reply to topics in this forum
You cannot edit your posts in this forum
You cannot delete your posts in this forum
You cannot vote in polls in this forum
You cannot attach files in this forum
You can download files in this forum