Большое ограбление поезда / The First Great Train Robbery (Майкл Крайтон / Michael Crichton) [1979, Великобритания, афёра, TVRip-AVC] [Fullscreen] MVO (Петербург 5 канал)

Reply to topic
DL-List and Torrent activity
Size:  2.32 GB   |    Registered:  3 years 1 month   |    Completed:  16 times

Seeder not seen: Never

 
   
 
 
Author Message

erzsebet.org ®

Longevity: 3 years 1 month

Posts: 47596

Post 02-Dec-2017 16:55

[Quote]

Большое ограбление поезда / The First Great Train Robbery / Fullscreen
Страна: Великобритания
Жанр: афёра
Год выпуска: 1979
Продолжительность: 01:44:08
Перевод: Профессиональный (многоголосый закадровый) Петербург 5 канал
Субтитры: нет
Оригинальная аудиодорожка: нет
Режиссер: Майкл Крайтон / Michael Crichton
В ролях: Шон Коннери, Дональд Сазерленд, Лесли-Энн Даун, Малколм Террис, Роберт Лэнг, Майкл Элфик, Памела Сейлем, Гэбриэлль Ллойд, Джеймс Коссинс, Питер Бенсон, Джанин Дувицкий, Андре Морелл, Брайан Гловер, Ноэль Джонсон, Питер Баттерворф, Патрик Барр, Оливер Смит, Джон Олтмэн, Брук Эдамс (в титрах не указана)
Описание: Эдвард Пирс — хитроумный преступник, задумавший присвоить 25 тысяч фунтов в золотых слитках, отправленных поездом из Лондона на Крымскую войну. Для этого Пирсу и его партнеру Роберту Эгару нужно сделать копии четырех ключей от сейфа, а также совершить еще ряд восхитительно-дерзких манипуляций…
Доп. информация:
Оцифровка VHS с записью эфира питерского 5 канала. Из собственной коллекции.
Fullscreen!
Сэмпл: http://sendfile.su/1348773
Качество видео: TVRip-AVC
Формат видео: MP4
Видео: AVC, 720х576, 5:4, 25,000 кадров/сек, 3000 Кбит/сек
Аудио: AAC, 64,0 КГц, 192 Кбит/сек, 2.0 (псевдостерео)

MediaInfo

General
Complete name : K:\torrents\The First Great Train Robbery\The First Great Train Robbery.mp4
Format : MPEG-4
Format profile : Base Media
Codec ID : isom (isom/iso2/avc1/mp41)
File size : 2.32 GiB
Duration : 1 h 44 min
Overall bit rate : 3 196 kb/s
Writing application : Lavf57.25.100
Video
ID : 1
Format : AVC
Format/Info : Advanced Video Codec
Format profile : [email protected]
Format settings, CABAC : No
Format settings, RefFrames : 1 frame
Format settings, GOP : M=1, N=50
Codec ID : avc1
Codec ID/Info : Advanced Video Coding
Duration : 1 h 44 min
Bit rate : 3 000 kb/s
Width : 720 pixels
Height : 576 pixels
Display aspect ratio : 5:4
Frame rate mode : Constant
Frame rate : 25.000 FPS
Standard : PAL
Color space : YUV
Chroma subsampling : 4:2:0
Bit depth : 8 bits
Scan type : Progressive
Bits/(Pixel*Frame) : 0.289
Stream size : 2.18 GiB (94%)
Audio
ID : 2
Format : AAC
Format/Info : Advanced Audio Codec
Format profile : LTP
Codec ID : 40
Duration : 1 h 44 min
Bit rate mode : Constant
Bit rate : 192 kb/s
Channel(s) : 2 channels
Channel(s)_Original : 3 channels
Channel positions : Front: L C R
Sampling rate : 64.0 kHz
Frame rate : 62.500 FPS (1024 SPF)
Compression mode : Lossy
Stream size : 141 MiB (6%)
Default : Yes
Alternate group : 1

Скриншот c названием фильма

If your ratio falls below 0.3, you will not be able to download Torrents! More about the rating.

[erzsebet.pl].t536.torrent
Torrent: Registered [ 2017-12-02 16:56 ] · 6C03045E5FF8B274CA63A8256B66CC14F8DEC67E

Download .torrent

Download

12 KB

Status: checked
Completed: 16 times
Size: 2.32 GB
terms.php
[Profile] [PM]
Display posts:    
Reply to topic

Current time is: 18-Jan 00:57

All times are UTC ± 0



You cannot post new topics in this forum
You cannot reply to topics in this forum
You cannot edit your posts in this forum
You cannot delete your posts in this forum
You cannot vote in polls in this forum
You cannot attach files in this forum
You can download files in this forum