Азарт удачи / The Fortune Cookie (Билли Уайлдер / Billy Wilder) [1966, США, Комедия, BDRip] MVO

Reply to topic
DL-List and Torrent activity
Size:  1.47 GB   |    Registered:  3 years 1 month   |    Completed:  16 times

Seeder not seen: Never

 
   
 
 
Author Message

erzsebet.org ®

Longevity: 3 years 1 month

Posts: 47596

Post 02-Dec-2017 16:55

[Quote]

Азарт удачи / The Fortune Cookie«Some people will do anything for money!»- Страна: США
Жанр: Комедия
Год выпуска: 1966
Продолжительность: 02:05:42-Перевод: Профессиональный (многоголосый закадровый)
Субтитры: нет
Оригинальная аудиодорожка: нет-Режиссер: Билли Уайлдер / Billy Wilder-В ролях: Джек Леммон, Уолтер Маттау, Рон Рич, Джуди Уэст, Клифф Осмонд, Лурин Таттл, Гарри Холкомб, Лес Тримэйн, Лорен Джилберт, Марж Редмонд, Ноам Питлик-Описание: Cпортивный телевизионный оператор Гарри Хинкл совершенно случайно получает небольшую, совершенно не опасную для здоровья травму на работе от звезды национальной футбольной лиги "Бум Бума" Джексона. Сам пострадавший особых претензий к Бум Буму не имеет, но зато их имеют ушлый адвокат, приходящийся Гарри зятем, и бывшая женушка Гарри, сразу решившая "восстановить" брак. Они остро чувствуют запах наживы и разрабатывают план грандиозной аферы, цель которой получить огромные отступные за мнимые увечья Хинкла…-Сэмпл | IMDB | КиноПоиск-Качество видео: BDRip [исх. The.Fortune.Cookie.1966.1080p.BluRay.REMUX.AVC.DTS-HD-MA.2.0ch.mkv]
Формат видео: AVI-Видео: 720x304 (2.37:1), 23.976 fps, XviD build 50, 1467 kbps avg, 0.28 bit/pixel
Аудио: 48 kHz, AC3 Dolby Digital, 2/0 (L,R) ch, 192.00 kbps avg [Russian_MVO]-Релиз группы: -

MediaInfo

General
Complete name : D:\Мои релизы\The Fortune Cookie_BDRip_RG_All_Films.avi
Format : AVI
Format/Info : Audio Video Interleave
File size : 1.47 GiB
Duration : 2h 5mn
Overall bit rate : 1 669 Kbps
Writing application : VirtualDubMod 1.5.10.3 | www.virtualdub-fr.org || (build 2550/release)
Writing library : VirtualDubMod build 2550/release
Video
ID : 0
Format : MPEG-4 Visual
Format profile : Advanced [email protected]
Format settings, BVOP : Yes
Format settings, QPel : No
Format settings, GMC : No warppoints
Format settings, Matrix : Custom
Codec ID : XVID
Codec ID/Hint : XviD
Duration : 2h 5mn
Bit rate : 1 467 Kbps
Width : 720 pixels
Height : 304 pixels
Display aspect ratio : 2.35:1
Frame rate : 23.976 fps
Color space : YUV
Chroma subsampling : 4:2:0
Bit depth : 8 bits
Scan type : Progressive
Compression mode : Lossy
Bits/(Pixel*Frame) : 0.280
Stream size : 1.29 GiB (88%)
Writing library : XviD 1.2.1 (UTC 2008-12-04)
Audio
ID : 1
Format : AC-3
Format/Info : Audio Coding 3
Mode extension : CM (complete main)
Codec ID : 2000
Duration : 2h 5mn
Bit rate mode : Constant
Bit rate : 192 Kbps
Channel(s) : 2 channels
Channel positions : Front: L R
Sampling rate : 48.0 KHz
Bit depth : 16 bits
Compression mode : Lossy
Stream size : 173 MiB (12%)
Alignment : Split accross interleaves
Interleave, duration : 42 ms (1.00 video frame)
Interleave, preload duration : 500 ms

Скриншоты

-Торрент-файл перезалит 14.07.2017 по причине замены HDTVRip BDRip

If your ratio falls below 0.3, you will not be able to download Torrents! More about the rating.

[erzsebet.pl].t538.torrent
Torrent: Registered [ 2017-12-02 16:56 ] · B7CD0E6B2482725EDA72DD8C9933350F57C2E271

Download .torrent

Download

15 KB

Status: checked
Completed: 16 times
Size: 1.47 GB
terms.php
[Profile] [PM]
Display posts:    
Reply to topic

Current time is: 21-Jan 16:39

All times are UTC ± 0



You cannot post new topics in this forum
You cannot reply to topics in this forum
You cannot edit your posts in this forum
You cannot delete your posts in this forum
You cannot vote in polls in this forum
You cannot attach files in this forum
You can download files in this forum