Три моряка и девушка / Three Sailors and a Girl (Рой Дель Рут / Roy Del Ruth) [1953, США, мюзикл, комедия, DVDRip] VO + Original Eng

Reply to topic
DL-List and Torrent activity
Size:  1.58 GB   |    Registered:  3 years 1 month   |    Completed:  16 times

Seeder not seen: Never

 
   
 
 
Author Message

erzsebet.org ®

Longevity: 3 years 1 month

Posts: 47596

Post 02-Dec-2017 16:55

[Quote]

Три моряка и девушка / Three Sailors and a Girl
Страна: США
Студия: Warner Bros. Pictures
Жанр: мюзикл, комедия
Год выпуска: 1953
Продолжительность: 01:35:13
Перевод: Одноголосый закадровый - Владимир Воронцов (-Доцент-)
Субтитры: русские (только на песни)
Оригинальная аудиодорожка: английский
Режиссер: Рой Дель Рут / Roy Del Ruth
Композиторы: Рэй Хайндорф / Ray Heindorf, Ховард Джексон / Howard Jackson
В ролях: Джейн Пауэлл / Jane Powell ... Penny Weston
Гордон МакРэй / Gordon MacRae ... «Choirboy» Jones
Джин Нельсон / Gene Nelson ... Twitch
Сэм Левин / Sam Levene ... Joe Woods
Джордж Гивот / George Givot ... Emilio Rossi
Веда Энн Борг / Veda Ann Borg ... Faye Foss
Арчер МакДональд / Archer MacDonald ... Melvin Webster
Рэймонд Гринлиф / Raymond Greenleaf ... B.P. Morrow - Bank President
Генри Слейт / Henry Slate ... Hank the Sailor
Джек Э. Леонард / Jack E. Leonard ... Porky
Мюррэй Элпер / Murray Alper ... Marine, в титрах не указан
Джон Баэр / John Baer ... Sailor, в титрах не указан

Берт Ланкастер / Burt Lancaster ... Marine, в титрах не указан
Описание: Судьба сводит трёх матросов, отправившихся в увольнительную в Нью-Йорк, с Джо Вудсом - продюсером нового шоу с певцом Эмилио Росси в главной роли. Джо Вудс решает воспользоваться наивностью молодых людей и уговаривает вложить все их накопления в своё шоу. Если друзья сначала сомневаются, то после знакомства с участницей постановки Пенни Уэстон с радостью соглашаются стать сопродюссерами.

Интересный факт

- У Берта Ланкастера маленькое камео в конце фильма в образе морского пехотинца, который нерешительно спрашивает у Джо Вудса о возможности выступить в главной роли в мюзикле. Джо Вудс отмахивается от него. На вопрос, почему он был таким грубым, Джо говорит, что этот морской пехотинец слишком похож на Берта Ланкастера.
--БОЛЬШОЕ СПАСИБО:
Перевод и озвучивание фильма - Владимир Воронцов (-Доцент-)
Работа со звуком и реавторинг DVD - AlekceyR76
Также Большое Спасибо всем, кто принял участие в появлении перевода и озвучки к этому фильму:
Магда, Lafajet, jasenka, елена 22, yanaelisa, surzhoks, HippopotamusIV, sapog1960, Simpun, cementit, leoder, voostorg, sin58, keg38, Patsy+, Видео, sindzi
--Сэмпл: https://www.sendspace.com/file/5q8q3j
Качество видео: DVDRip
Формат видео: AVI
Видео: XviD, 640x480 (1.33:1), 23.976 fps, 1987 Kbps
Аудио 1: AC3, 48.0 KHz, 2 ch., 192 Kbps (русский одноголосый закадровый перевод) - Владимир Воронцов (-Доцент-)
Аудио 2: AC3, 48.0 KHz, 2 ch., 192 Kbps (оригинальная английская звуковая дорожка, лежит отдельно)
Как подключить альтернативную (внешнюю) звуковую дорожку к видео при просмотре?
Как добавить отдельно лежащую аудиодорожку в .avi - файл? (см. "Программы для работы с контейнерами" - > "VirtualDub" или "AVI-Mux")

MediaInfo

AVI-файл:
Общее
Полное имя : I:\раздачи\Three Sailors and a Girl 1953\Three Sailors and a Girl.avi
Формат : AVI
Формат/Информация : Audio Video Interleave
Размер файла : 1,46 Гбайт
Продолжительность : 1 ч. 35 м.
Общий поток : 2188 Кбит/сек
Программа кодирования : VirtualDubMod 1.5.10.3 | www.virtualdub-fr.org || (build 2550/release)
Библиотека кодирования : VirtualDubMod build 2550/release
Видео
Идентификатор : 0
Формат : MPEG-4 Visual
Профиль формата : Advanced [email protected]
Параметр BVOP формата : 2
Параметр QPel формата : Нет
Параметр GMC формата : Без точки перехода
Параметр матрицы формата : Default (H.263)
Идентификатор кодека : DX50
Идентификатор кодека/Подсказка : DivX 5
Продолжительность : 1 ч. 35 м.
Битрейт : 1987 Кбит/сек
Ширина : 640 пикселей
Высота : 480 пикселей
Соотношение сторон : 4:3
Частота кадров : 23,976 (24000/1001) кадра/сек
Цветовое пространство : YUV
Субдискретизация насыщенности : 4:2:0
Битовая глубина : 8 бит
Тип развёртки : Прогрессивная
Метод сжатия : С потерями
Бит/(Пиксели*Кадры) : 0.270
Размер потока : 1,32 Гбайт (91%)
Библиотека кодирования : XviD 73
Аудио
Идентификатор : 1
Формат : AC-3
Формат/Информация : Audio Coding 3
Параметр Endianness формата : Big
Идентификатор кодека : 2000
Продолжительность : 1 ч. 35 м.
Вид битрейта : Постоянный
Битрейт : 192 Кбит/сек
Каналы : 2 канала
Расположение каналов : Front: L R
Частота : 48,0 КГц
Частота кадров : 31,250 кадров/сек (1536 spf)
Битовая глубина : 16 бит
Метод сжатия : С потерями
Размер потока : 131 Мбайт (9%)
Выравнивание : Разделение по промежуткам
Продолжительность промежутка : 42 мс. (1,00 видеокадр)
Время предзагрузки промежутка : 500 мс.
ServiceKind/String : Complete Main
английская оригинальная звуковая дорожка, лежит отдельно:
Общее
Полное имя : I:\раздачи\Three Sailors and a Girl 1953\Three Sailors and a Girl.ENG.ac3
Формат : AC-3
Формат/Информация : Audio Coding 3
Размер файла : 131 Мбайт
Продолжительность : 1 ч. 35 м.
Режим общего битрейта : Постоянный
Общий поток : 192 Кбит/сек
Аудио
Формат : AC-3
Формат/Информация : Audio Coding 3
Параметр Endianness формата : Big
Продолжительность : 1 ч. 35 м.
Вид битрейта : Постоянный
Битрейт : 192 Кбит/сек
Каналы : 2 канала
Расположение каналов : Front: L R
Частота : 48,0 КГц
Частота кадров : 31,250 кадров/сек (1536 spf)
Битовая глубина : 16 бит
Метод сжатия : С потерями
Размер потока : 131 Мбайт (100%)
ServiceKind/String : Complete Main

If your ratio falls below 0.3, you will not be able to download Torrents! More about the rating.

[erzsebet.pl].t542.torrent
Torrent: Registered [ 2017-12-02 16:56 ] · 978692E47D70C45E2562825C3DAA4F93EC724311

Download .torrent

Download

16 KB

Status: checked
Completed: 16 times
Size: 1.58 GB
terms.php
[Profile] [PM]
Display posts:    
Reply to topic

Current time is: 28-Jan 09:06

All times are UTC ± 0



You cannot post new topics in this forum
You cannot reply to topics in this forum
You cannot edit your posts in this forum
You cannot delete your posts in this forum
You cannot vote in polls in this forum
You cannot attach files in this forum
You can download files in this forum