Немедленное действие / Action immediate / Action immédiate (орис Лабро / Maurice Labro) [1957, Франция, Комедия, криминал, DVDRip] VO (Andi999) + Sub Rus + Original Fre

Reply to topic
DL-List and Torrent activity
Size:  1.37 GB   |    Registered:  3 years 1 month   |    Completed:  16 times

Seeder not seen: Never

 
   
 
 
Author Message

erzsebet.org ®

Longevity: 3 years 1 month

Posts: 47596

Post 02-Dec-2017 16:55

[Quote]

Немедленное действие / Action immediate / Action immédiate
Страна: Франция
Жанр: Комедия, криминал
Год выпуска: 1957
Продолжительность: 01:40:13
Перевод: Одноголосый закадровый Andi999
Субтитры: Русские sonnyb
Оригинальная аудиодорожка: Французский
Режиссер: Mорис Лабро / Maurice Labro
В ролях: Анри Видаль, Барбара Лаж, Жак Дакмин, Николь Море, Лино Вентура, Маргарет Рун, Джесс Хан, Харальд Вольф, Луи Арбесье, Рауль Бийре, Андре Вебер
Описание: кранизация одного из шпионских романов Пола Кенни (Paul Kenny) о французском секретном агенте Фрэнсисе Коплане. На этот раз, главный герой отправляется в Швейцарию на поиски похищенных документов, содержащих информацию о новейшем секретном оружии. В роли одного из злодеев - молодой Лино Вентура.
Доп. информация: Рип с моего DVD http://erzsebet.org/forum/viewtopic.php?t=4964962
За появление озвучки говорим Спасибо Aleks Punk наложение чистого голоса НОРДЕР отдельное Спасибо
Сэмпл: http://multi-up.com/1161268
Качество видео: DVDRip
Формат видео: AVI
Видео: XVID, 688х512, 25.000 fps, 1 560 Kbps
Аудио 1: Русский (AC3 192 kbps 2 ch 48.0 KHz)
Аудио 2: Французский (AC3 192 kbps 2 ch 48.0 KHz)
Формат субтитров: softsub (SRT)
Релиз:

MediaInfo

General
Complete name : C:\Documents and Settings\Admin\Мои документы\Downloads\Action immediate 1957\Action immediate 1957.avi
Format : AVI
Format/Info : Audio Video Interleave
File size : 1.37 GiB
Duration : 1h 40mn
Overall bit rate : 1 953 Kbps
Writing application : VirtualDubMod 1.5.4.1 (build 2178/release)
Writing library : VirtualDubMod build 2178/release
Video
ID : 0
Format : MPEG-4 Visual
Format profile : Advanced [email protected]
Format settings, BVOP : 1
Format settings, QPel : No
Format settings, GMC : No warppoints
Format settings, Matrix : Custom
Codec ID : XVID
Codec ID/Hint : XviD
Duration : 1h 40mn
Bit rate : 1 560 Kbps
Width : 688 pixels
Height : 512 pixels
Display aspect ratio : 4:3
Frame rate : 25.000 fps
Color space : YUV
Chroma subsampling : 4:2:0
Bit depth : 8 bits
Scan type : Progressive
Compression mode : Lossy
Bits/(Pixel*Frame) : 0.177
Stream size : 1.09 GiB (80%)
Writing library : XviD 1.2.1 (UTC 2008-12-04)
Audio #1
ID : 1
Format : AC-3
Format/Info : Audio Coding 3
Mode extension : CM (complete main)
Format settings, Endianness : Big
Codec ID : 2000
Duration : 1h 40mn
Bit rate mode : Constant
Bit rate : 192 Kbps
Channel(s) : 2 channels
Channel positions : Front: L R
Sampling rate : 48.0 KHz
Bit depth : 16 bits
Compression mode : Lossy
Stream size : 138 MiB (10%)
Alignment : Split accross interleaves
Interleave, duration : 96 ms (2.40 video frames)
Interleave, preload duration : 96 ms
Language : Russian
Audio #2
ID : 2
Format : AC-3
Format/Info : Audio Coding 3
Mode extension : CM (complete main)
Format settings, Endianness : Big
Codec ID : 2000
Duration : 1h 40mn
Bit rate mode : Constant
Bit rate : 192 Kbps
Channel(s) : 2 channels
Channel positions : Front: L R
Sampling rate : 48.0 KHz
Bit depth : 16 bits
Compression mode : Lossy
Stream size : 138 MiB (10%)
Alignment : Split accross interleaves
Interleave, duration : 96 ms (2.40 video frames)
Interleave, preload duration : 96 ms
Language : Francais

Скриншот c названием фильма

Скриншоты

Пример субтитров

1
00:00:43,589 --> 00:00:46,589
~ Немедленное действие ~
2
00:00:47,590 --> 00:00:50,590
перевёл sonnyb
3
00:03:20,590 --> 00:03:25,873
Вниманию пассажиров, летящих в Цюрих,
4
00:03:25,874 --> 00:03:31,489
пройдите, пожалуйста, к вратам №3
для немедленной посадки.

5
00:03:32,097 --> 00:03:38,617
Рейс СвиссЭйр 145 в Цюрих, врата №3
немедленная посадка, пожалуйста.

6
00:04:46,025 --> 00:04:49,964
Ты знаешь, что ты очень привлекательная
персона, Сильвия?
7
00:04:50,784 --> 00:04:56,451
- А! Хорошая поездка?
- Отличная.
8
00:04:56,452 --> 00:05:00,915
- Кажется, вы друг друга знаете.
- Достаточно, да.
9
00:05:17,312 --> 00:05:22,898
Бесценный металлический сплав, но он стоит
золота. Много золота.
10
00:05:34,100 --> 00:05:38,850
Это Кальпанен. Диана только что
приехала сюда с... важной вещью.
11
00:05:40,884 --> 00:05:46,178
Нет, обычная авария.
О? Точно. Я скажу клиенту.
12
00:06:25,948 --> 00:06:28,743
Нет, это я приехал раньше.
13
00:06:50,773 --> 00:06:53,102
Вы не пересчитаете их?
14
00:06:53,103 --> 00:06:56,379
Репутации организации Космос
для меня достаточно.
15
00:06:56,380 --> 00:06:59,172
Благодарю.
16
00:07:05,393 --> 00:07:09,574
Пожалуйста. Я часто приезжаю первым,
17
00:07:09,575 --> 00:07:12,611
но я всегда уезжаю последним.
18
00:07:23,459 --> 00:07:25,894
В Орли украли документы.
19
00:07:25,895 --> 00:07:28,522
Таинственные нападавшие замаскировали всё,
как автокатастрофу.
20
00:07:28,523 --> 00:07:31,676
Входи. Что такое?

If your ratio falls below 0.3, you will not be able to download Torrents! More about the rating.

[erzsebet.pl].t543.torrent
Torrent: Registered [ 2017-12-02 16:56 ] · CC0BD658EDDEB5DD5C27CF7D7056E90DDA69A8B7

Download .torrent

Download

14 KB

Status: checked
Completed: 16 times
Size: 1.37 GB
terms.php
[Profile] [PM]
Display posts:    
Reply to topic

Current time is: 23-Jan 10:58

All times are UTC ± 0



You cannot post new topics in this forum
You cannot reply to topics in this forum
You cannot edit your posts in this forum
You cannot delete your posts in this forum
You cannot vote in polls in this forum
You cannot attach files in this forum
You can download files in this forum