Прежде, чем меня повесят / Before I Hang (Ник Гринд / Nick Grinde) [1940, США, ужасы, фантастика, криминал, DVDRip] VO (Максим Логинофф) + Original Eng

Reply to topic
DL-List and Torrent activity
Size:  733 MB   |    Registered:  3 years 1 month   |    Completed:  16 times

Seeder not seen: Never

 
   
 
 
Author Message

erzsebet.org ®

Longevity: 3 years 1 month

Posts: 47596

Post 02-Dec-2017 16:55

[Quote]

Прежде, чем меня повесят / Before I Hang
Страна: США
Жанр: ужасы, фантастика, криминал
Год выпуска: 1940
Продолжительность: 01:02:08.972
Перевод: Одноголосый закадровый Максим Логинофф
Субтитры: нет
Оригинальная аудиодорожка: английский
Режиссер: Ник Гринд / Nick Grinde
В ролях: Борис Карлофф, Эвелин Кийес, Брюс Беннетт, Эдвард Ван Слоун
Описание: Гениальный медик д-р Гарт приговорен к повешению за то, что помог умереть пациенту. До приведения приговора в исполнение остается месяц. Но доктор не может уйти на тот свет, не доведя до конца главное дело своей жизни: он хочет подарить человечеству бессмертие. Первый опыт оказывается настолько удачным, что Гарт оказывается помилован — и вот тут-то начинается самое страшное…
IMDB: http://www.imdb.com/title/tt0032245/
Сэмпл: http://multi-up.com/1161253
Качество видео: DVDRip
Формат видео: AVI
Видео: 672x448 (1.50:1), 23.976 fps, XviD build 67 ~1250 kbps avg, 0.17 bit/pixel
Аудио: 48 kHz, MPEG Layer 3, 2 ch, ~192.00 kbps avg (rus)
Аудио 2: 48 kHz, MPEG Layer 3, 2 ch, ~192.00 kbps avg (eng)
ТОРРЕНТ БЫЛ ПЕРЕЗАЛИТ

MediaInfo

Общее
Полное имя : D:\BIH\Pregde_Chem_Meny_Povesyt_[erzsebet.org].avi
Формат : AVI
Формат/Информация : Audio Video Interleave
Размер файла : 733 Мбайт
Продолжительность : 1 ч. 2 м.
Общий поток : 1649 Кбит/сек
Программа кодирования : VirtualDubMod 1.5.10.2 (build 2540/release)
Библиотека кодирования : VirtualDubMod build 2540/release
Видео
Идентификатор : 0
Формат : MPEG-4 Visual
Профиль формата : Advanced [email protected]
Параметр BVOP формата : 2
Параметр QPel формата : Нет
Параметр GMC формата : Без точки перехода
Параметр матрицы формата : Default (H.263)
Идентификатор кодека : XVID
Идентификатор кодека/Подсказка : XviD
Продолжительность : 1 ч. 2 м.
Битрейт : 1251 Кбит/сек
Ширина : 672 пикселя
Высота : 448 пикселей
Соотношение сторон : 3:2
Частота кадров : 23,976 (24000/1001) кадра/сек
Цветовое пространство : YUV
Субдискретизация насыщенности : 4:2:0
Битовая глубина : 8 бит
Тип развёртки : Прогрессивная
Метод сжатия : С потерями
Бит/(Пиксели*Кадры) : 0.173
Размер потока : 556 Мбайт (76%)
Библиотека кодирования : XviD 67
Аудио #1
Идентификатор : 1
Формат : MPEG Audio
Версия формата : Version 1
Профиль формата : Layer 3
Режим : Joint stereo
Идентификатор кодека : 55
Идентификатор кодека/Подсказка : MP3
Продолжительность : 1 ч. 2 м.
Вид битрейта : Постоянный
Битрейт : 192 Кбит/сек
Каналы : 2 канала
Частота : 48,0 КГц
Метод сжатия : С потерями
Размер потока : 85,3 Мбайт (12%)
Выравнивание : Соединение по промежуткам
Продолжительность промежутка : 42 мс. (1,00 видеокадр)
Время предзагрузки промежутка : 504 мс.
Аудио #2
Идентификатор : 2
Формат : MPEG Audio
Версия формата : Version 1
Профиль формата : Layer 3
Режим : Joint stereo
Идентификатор кодека : 55
Идентификатор кодека/Подсказка : MP3
Продолжительность : 1 ч. 2 м.
Вид битрейта : Постоянный
Битрейт : 192 Кбит/сек
Каналы : 2 канала
Частота : 48,0 КГц
Метод сжатия : С потерями
Размер потока : 85,3 Мбайт (12%)
Выравнивание : Соединение по промежуткам
Продолжительность промежутка : 42 мс. (1,00 видеокадр)
Время предзагрузки промежутка : 504 мс.

Скриншот c названием фильма

Скриншоты




If your ratio falls below 0.3, you will not be able to download Torrents! More about the rating.

[erzsebet.pl].t544.torrent
Torrent: Registered [ 2017-12-02 16:56 ] · 2CA4A78C4EBEAB2E2D668FCEAF16F3A39D670899

Download .torrent

Download

15 KB

Status: checked
Completed: 16 times
Size: 733 MB
terms.php
[Profile] [PM]
Display posts:    
Reply to topic

Current time is: 28-Jan 08:01

All times are UTC ± 0



You cannot post new topics in this forum
You cannot reply to topics in this forum
You cannot edit your posts in this forum
You cannot delete your posts in this forum
You cannot vote in polls in this forum
You cannot attach files in this forum
You can download files in this forum