Мародеры Сахары / I predoni del Sahara (Гуидо Малатеста / Guido Malatesta) [1965, Италия, приключения, экранизация, VHSRip] Sub Rus + Original Ita

Reply to topic
DL-List and Torrent activity
Size:  734 MB   |    Registered:  3 years 1 month   |    Completed:  16 times

Seeder not seen: 3 years 1 month

 
   
 
 
Author Message

erzsebet.org ®

Longevity: 3 years 1 month

Posts: 47596

Post 02-Dec-2017 16:55

[Quote]

Мародеры Сахары / I predoni del Sahara Страна: Италия
Жанр: приключения, экранизация
Год выпуска: 1965
Продолжительность: 01:28:31
Перевод: Субтитры Антон Каптелов
Субтитры: русские
Оригинальная аудиодорожка: итальянский
Режиссер: Гуидо Малатеста / Guido Malatesta (в титрах Джеймс Рид)
В ролях: Джордж Микелл, Памела Тюдор, Энцо Фьермонте, Уильям Стокридж, Фарида Фахми, Нино Фусканьи, Карло Тамберлани
Описание: Экранизация романа классика итальянской приключенческой литературы Эмилио Сальгари.
Профессор-археолог Флаттерс попадает в плен к бедуинам во время нападения на караван. Его дочь и сын организуют экспедицию для спасения своего отца.
Доп. информация: Качество рипа очень слабое, но другого найти не удалось. Поэтому сначала качайте сэмпл и смотрите скриншоты.
Сэмпл: http://multi-up.com/1161229
Качество видео: VHSRip (рип найден в сети)
Формат видео: AVI
Видео: 624x480 (1.30:1), 23.976 fps, XviD build 67 ~1022 kbps avg, 0.14 bit/pixel
Аудио: 48 kHz, MPEG Layer 3, 2 ch, ~128.00 kbps avg
Формат субтитров: softsub (SRT)
Релиз:

MediaInfo

Формат : AVI
Формат/Информация : Audio Video Interleave
Размер файла : 734 Мбайт
Продолжительность : 1 ч. 28 м.
Общий поток : 1160 Кбит/сек
Видео
Идентификатор : 0
Формат : MPEG-4 Visual
Профиль формата : Advanced [email protected]
Параметр BVOP формата : 2
Параметр QPel формата : Нет
Параметр GMC формата : Без точки перехода
Параметр матрицы формата : Default (MPEG)
Идентификатор кодека : XVID
Идентификатор кодека/Подсказка : XviD
Продолжительность : 1 ч. 28 м.
Битрейт : 1022 Кбит/сек
Ширина : 624 пикселя
Высота : 480 пикселей
Соотношение сторон : 4:3
Частота кадров : 23,976 (23976/1000) кадра/сек
Цветовое пространство : YUV
Субдискретизация насыщенности : 4:2:0
Битовая глубина : 8 бит
Тип развёртки : Прогрессивная
Метод сжатия : С потерями
Бит/(Пиксели*Кадры) : 0.142
Размер потока : 647 Мбайт (88%)
Библиотека кодирования : XviD 67
Аудио
Идентификатор : 1
Формат : MPEG Audio
Версия формата : Version 1
Профиль формата : Layer 3
Режим : Joint stereo
Расширение режима : MS Stereo
Идентификатор кодека : 55
Идентификатор кодека/Подсказка : MP3
Продолжительность : 1 ч. 28 м.
Вид битрейта : Постоянный
Битрейт : 128 Кбит/сек
Каналы : 2 канала
Частота : 48,0 КГц
Метод сжатия : С потерями
Размер потока : 81,0 Мбайт (11%)
Выравнивание : Разделение по промежуткам
Продолжительность промежутка : 42 мс. (1,00 видеокадр)
Время предзагрузки промежутка : 500 мс.

Скриншот c названием фильма

Пример субтитров

10
00:01:48,539 --> 00:01:50,232
Вперед, скорее!
11
00:01:50,336 --> 00:01:51,899
Давайте же!
12
00:01:52,806 --> 00:01:55,011
Они ни в коем случае
не должны добраться до Тамал Бека!
13
00:02:10,814 --> 00:02:12,828
Давайте же! Скорее!
14
00:02:13,122 --> 00:02:14,758
Скорей!
15
00:02:38,148 --> 00:02:39,898
Скорей! Догнать их!
16
00:02:42,010 --> 00:02:44,349
Рок! Далеко еще?
17
00:02:47,528 --> 00:02:50,313
Нет. Тамал Бек совсем близко.
18
00:02:55,246 --> 00:02:57,695
- Ну, поднажмем!
- Да!
19
00:02:57,954 --> 00:03:00,800
Мы теперь в безопасности, Дороти!
Мы спасены!
20
00:03:00,906 --> 00:03:02,876
Мы наконец-то сделали это!
21
00:03:22,945 --> 00:03:26,270
Мы должны их схватить!
Пусть даже для этого нам придется
сжечь Тамал Бек!
22
00:03:26,422 --> 00:03:30,143
С ума сошел, Эль Мел? Войска султана
нас тут же уничтожат.
23
00:03:32,320 --> 00:03:33,938
Вперед!
24
00:03:49,772 --> 00:03:51,654
За мной! Спрячемся здесь!
25
00:03:58,064 --> 00:03:59,893
Быстро! Блокируем дверь!
26
00:04:05,372 --> 00:04:06,917
Вот так!
27
00:04:07,286 --> 00:04:08,908
Охраняй то окно.
28
00:04:51,695 --> 00:04:54,087
Осторожно! С той стороны их больше!
29
00:04:56,660 --> 00:04:58,508
Не мог бы помочь нам, дружище?
30
00:04:58,624 --> 00:05:00,956
Мой жизненный принцип -
ни во что не вмешиваться.
Огромное спасибо Антону Каптеловуза перевод и larisa547 за предоставленный рип и организацию перевода фильма!

If your ratio falls below 0.3, you will not be able to download Torrents! More about the rating.

[erzsebet.pl].t546.torrent
Torrent: Registered [ 2017-12-02 16:56 ] · AA43AD50875595C9320646309FBBEC95586ED7C7

Download .torrent

Download

15 KB

Status: checked
Completed: 16 times
Size: 734 MB
terms.php
[Profile] [PM]
Display posts:    
Reply to topic

Current time is: 21-Jan 18:32

All times are UTC ± 0



You cannot post new topics in this forum
You cannot reply to topics in this forum
You cannot edit your posts in this forum
You cannot delete your posts in this forum
You cannot vote in polls in this forum
You cannot attach files in this forum
You can download files in this forum