Че! / Che! (Ричард Флайшер / Richard Fleischer) [1969, США, Драма, биография, история, BDRip] MVO (Первый канал)

Reply to topic
DL-List and Torrent activity
Size:  742 MB   |    Registered:  3 years 1 month   |    Completed:  16 times

Seeder not seen: Never

 
   
 
 
Author Message

erzsebet.org ®

Longevity: 3 years 1 month

Posts: 47596

Post 02-Dec-2017 16:55

[Quote]

Че! / Che!
Страна: США
Жанр: драма, биография, история
Год выпуска: 1969
Продолжительность: 01:35:40
Перевод: Профессиональный (многоголосый закадровый), Первый канал
Субтитры: нет
Оригинальная аудиодорожка: нет
Режиссер: Ричард Флайшер / Richard Fleischer
В ролях: Омар Шариф,Джек Пэланс,Чезаре Данова,Роберт Лоджа,Вуди Строуд,Барбара Луна,Фрэнк Сильвера,Альберт Полсен,Линда Марш,Том Трауп
Описание:
Известный аргентинский революционер Эрнесто Че Гевара помогал лидеру кубинских революционеров Фиделю Кастро бороться против режима диктатора Батисты.
Че Гевара и по сей день вызывает самые противоречивые чувства у людей: одни считают его легендарным героем, другие — жестоким убийцей. Фильм охватывает период жизни «Че» с момента его высадки на Кубу в 1956 году и вплоть до 1967 года, когда он был схвачен правительственными войсками в горах Боливии.
Семпл/Все раздачи фильма
Исходник -- BDRemux 1080p http://erzsebet.org/forum/viewtopic.php?t=5421912
Качество видео: BDRip
Формат видео: AVI
Видео: 946 Kbps, 640x272, 23.976 fps, XviD, Bits/Pixel 0.227
Аудио: 128 Kbps, 48 KHz, 2 ch, MP3

МедиаИнфо

General
Complete name : E:\Che.1969.avi
Format : AVI
Format/Info : Audio Video Interleave
File size : 742 MiB
Duration : 1h 35mn
Overall bit rate : 1 084 Kbps
Writing application : VirtualDubMod 1.5.10.3 | www.virtualdub-fr.org || (build 2550/release)
Writing library : VirtualDubMod build 2550/release
Video
ID : 0
Format : MPEG-4 Visual
Format profile : Advanced [email protected]
Format settings, BVOP : Yes
Format settings, QPel : No
Format settings, GMC : No warppoints
Format settings, Matrix : Default (MPEG)
Codec ID : XVID
Codec ID/Hint : XviD
Duration : 1h 35mn
Bit rate : 946 Kbps
Width : 640 pixels
Height : 272 pixels
Display aspect ratio : 2.35:1
Frame rate : 23.976 fps
Resolution : 8 bits
Colorimetry : 4:2:0
Scan type : Progressive
Bits/(Pixel*Frame) : 0.227
Stream size : 648 MiB (87%)
Writing library : XviD 73
Audio
ID : 1
Format : MPEG Audio
Format version : Version 1
Format profile : Layer 3
Mode : Joint stereo
Format_Settings_ModeExtension : MS Stereo
Codec ID : 55
Codec ID/Hint : MP3
Duration : 1h 35mn
Bit rate mode : Constant
Bit rate : 128 Kbps
Channel(s) : 2 channels
Sampling rate : 48.0 KHz
Stream size : 87.6 MiB (12%)
Alignment : Aligned on interleaves
Interleave, duration : 42 ms (1.00 video frame)
Interleave, preload duration : 504 ms

Скриншоты

If your ratio falls below 0.3, you will not be able to download Torrents! More about the rating.

[erzsebet.pl].t550.torrent
Torrent: Registered [ 2017-12-02 16:56 ] · 232F7C577BA5016C34A1EB3A7AD668203DE8D22A

Download .torrent

Download

15 KB

Status: checked
Completed: 16 times
Size: 742 MB
terms.php
[Profile] [PM]
Display posts:    
Reply to topic

Current time is: 24-Jan 15:36

All times are UTC ± 0



You cannot post new topics in this forum
You cannot reply to topics in this forum
You cannot edit your posts in this forum
You cannot delete your posts in this forum
You cannot vote in polls in this forum
You cannot attach files in this forum
You can download files in this forum