Великолепная семерка снова в седле / The Magnificent Seven Ride! (Джордж МакКован / George McCowan) [1972, США, вестерн, TVRip-AVC] [Fullscreen] MVO (Селена Интернешнл по заказу ОРТ)

Reply to topic
DL-List and Torrent activity
Size:  2.77 GB   |    Registered:  3 years 1 month   |    Completed:  16 times

Seeder not seen: Never

 
   
 
 
Author Message

erzsebet.org ®

Longevity: 3 years 1 month

Posts: 47596

Post 02-Dec-2017 16:55

[Quote]

Великолепная семерка снова в седле / The Magnificent Seven Ride! / Fullscreen
Страна: США
Жанр: вестерн
Год выпуска: 1972
Продолжительность: 01:35:34
Перевод: Профессиональный (многоголосый закадровый) Селена Интернешнл по заказу ОРТ
Субтитры: нет
Оригинальная аудиодорожка: нет
Режиссер: Джордж МакКован / George McCowan
В ролях: Ли Ван Клиф, Стефани Пауэрс, Майкл Каллэн, Мэриетт Хартли, Люк Аскью, Педро Армендарис мл., Ральф Уэйт, Уильям Лаккинг, Джеймс Сиккинг, Эд Лотер, Эллин Энн МакЛери, Гэри Бьюзи (одна из первых ролей), Роберт Джаффе, Даррел Ларсон, Кэролин Конвелл, Рон Стейн...
Описание:
Крис Адамс решил уйти на покой, поступил на службу шерифом и собрался жениться. За спокойную жизнь приходится расплачиваться: Крис засадил в тюрьму нескольких своих бывших друзей, и теперь они жаждут поквитаться с ним. Невеста уговаривает Криса отпустить восемнадцатилетнего оболтуса Шелли, и за это тоже шерифу пришлось расплатиться по полной — шайка Шелли убивает его невесту, а сам Крис тяжело ранен. А тут еще тревожные новости из близлежащего городка: одна из банд под предводительство некоего Де Торо постоянно совершает грабительские набеги, бандиты убивают мужчин и насилуют женщин. Чтобы разобраться со всем этим, Крису придется тряхнуть стариной, но готов ли кто-нибудь ещё выступить на его стороне?
Доп. информация:
Оцифровка VHS из собственной коллекции с записью эфира ОРТ. Запись сделана в период с 1 октября 2000 по 31 августа 2001.
Fullscreen!
Перевод Селены Интернешнл в Рунете впервые!

К сожалению кассета ЕСР оказалась крайне низкого качества, на протяжении почти получаса с 13 по 41 минуту ширина плёнки плавает!
Из трёх моих видеомагнитофонов - хайфайный Панасоник вообще отказался работать с кассетой, хайфайный Самсунг не справился с этим самым бракованым куском плёнки, только четырёхголовочный Шарп один единственный раз (!) согласился воспроизвести этот участок, повторные попытки, как и попытка оцифровать фильм на нём целиком - успехом не увенчались.
Поэтому в раздаче два файла - оцифровка Самсунгом и "файл для ремонта" от Шарпа. Может кто-нибудь сделает "конструктор", я не умею.
Сэмпл: http://sendfile.su/1347496
Качество видео: TVRip-AVC
Формат видео: MP4
Видео: AVC, 720х576, 5:4, 25,000 кадров/сек, 3000 Кбит/сек
Аудио: AAC, 64,0 КГц, 192 Кбит/сек, 2.0 (псевдостерео)

MediaInfo

General
Complete name : K:\torrents\The Magnificent Seven Ride!\The Magnificent Seven Ride!.mp4
Format : MPEG-4
Format profile : Base Media
Codec ID : isom (isom/iso2/avc1/mp41)
File size : 2.11 GiB
Duration : 1 h 35 min
Overall bit rate : 3 161 kb/s
Writing application : Lavf57.25.100
Video
ID : 1
Format : AVC
Format/Info : Advanced Video Codec
Format profile : [email protected]
Format settings, CABAC : No
Format settings, RefFrames : 1 frame
Format settings, GOP : M=1, N=50
Codec ID : avc1
Codec ID/Info : Advanced Video Coding
Duration : 1 h 35 min
Bit rate : 2 966 kb/s
Width : 720 pixels
Height : 576 pixels
Display aspect ratio : 5:4
Frame rate mode : Constant
Frame rate : 25.000 FPS
Standard : PAL
Color space : YUV
Chroma subsampling : 4:2:0
Bit depth : 8 bits
Scan type : Progressive
Bits/(Pixel*Frame) : 0.286
Stream size : 1.98 GiB (94%)
Audio
ID : 2
Format : AAC
Format/Info : Advanced Audio Codec
Format profile : LTP
Codec ID : 40
Duration : 1 h 35 min
Bit rate mode : Constant
Bit rate : 192 kb/s
Channel(s) : 2 channels
Channel(s)_Original : 3 channels
Channel positions : Front: L C R
Sampling rate : 64.0 kHz
Frame rate : 62.500 FPS (1024 SPF)
Compression mode : Lossy
Stream size : 129 MiB (6%)
Default : Yes
Alternate group : 1

Скриншот c названием фильма

If your ratio falls below 0.3, you will not be able to download Torrents! More about the rating.

[erzsebet.pl].t551.torrent
Torrent: Registered [ 2017-12-02 16:56 ] · 209805E766F043A7F8B5276811F530EEFEB282BE

Download .torrent

Download

14 KB

Status: checked
Completed: 16 times
Size: 2.77 GB
terms.php
[Profile] [PM]
Display posts:    
Reply to topic

Current time is: 28-Jan 08:07

All times are UTC ± 0



You cannot post new topics in this forum
You cannot reply to topics in this forum
You cannot edit your posts in this forum
You cannot delete your posts in this forum
You cannot vote in polls in this forum
You cannot attach files in this forum
You can download files in this forum