Атака лёгкой кавалерии / The Charge of the Light Brigade (Тони Ричардсон / Tony Richardson) [1968, Великобритания, драма, DVDRip] MVO + original

Reply to topic
DL-List and Torrent activity
Size:  1.26 GB   |    Registered:  3 years 1 month   |    Completed:  16 times

Seeder not seen: Never

 
   
 
 
Author Message

erzsebet.org ®

Longevity: 3 years 1 month

Posts: 47596

Post 02-Dec-2017 16:54

[Quote]

Атака лёгкой кавалерии / The Charge of the Light Brigade
Год выпуска: 1968
Страна: Великобритания
Жанр: драма
Продолжительность: 2:04:57
Перевод: профессиональный (многоголосый, закадровый), «Петербург - 5 канал»
Русские субтитры: нет
Режиссёр: Тони Ричардсон / Tony Richardson
В ролях: Тревор Хауард /Trevor Howard/, Ванесса Редгрэйв /Vanessa Redgrave/, Джон Гилгуд /John Gielgud/, Хэрри Эндрюс /Harry Andrews/, Джилл Беннетт /Jill Bennett/, Дэвид Хеммингс /David Hemmings/, Питер Баулз /Peter Bowles/, Марк Бернс /Mark Burns/, Хауард Мэрион-Кроуфорд /Howard Marion-Crawford/, Марк Дигнэм /Mark Dignam/
Описание: Сатирическая антивоенная драма о британской армии и о событиях, предшествовавших Балаклавскому сражению — знаменитому эпизоду Крымской войны 1854 года.
[box=#000000,#FFFFFF]КиноПоиск[/box][box=#000000,#FFFFFF]IMDb[/box]
Качество: DVDRip
Формат: AVI
Видео: XVID 640x272 25.00fps 1174Kbps 0.27bit/pixel
Аудио #1: MPEG Audio Layer 3 48000Hz stereo 128Kbps (russian)
Аудио #2: MPEG Audio Layer 3 48000Hz stereo 128Kbps (english)
Рип найден в сети.
На 105-й минуте на несколько секунд появляется дефект изображения (1:44:26 - 1:44:34)

MediaInfo

Общее
Полное имя : The.Charge.of.the.Light.Brigade.1968.Tony.Richardson.avi
Формат : AVI
Формат/Информация : Audio Video Interleave
Размер файла : 1,26 Гбайт
Продолжительность : 2 ч. 4 м.
Общий поток : 1445 Кбит/сек
Программа кодирования : VirtualDubMod 1.5.10.2 (build 2540/release)
Библиотека кодирования : VirtualDubMod build 2540/release
Видео
Идентификатор : 0
Формат : MPEG-4 Visual
Профиль формата : Advanced [email protected]
Параметр BVOP формата : 1
Параметр QPel формата : Нет
Параметр GMC формата : Без точки перехода
Параметр матрицы формата : Выборочная
Идентификатор кодека : XVID
Идентификатор кодека/Подсказка : XviD
Продолжительность : 2 ч. 4 м.
Битрейт : 1175 Кбит/сек
Ширина : 640 пикселей
Высота : 272 пикселя
Соотношение сторон : 2,35:1
Частота кадров : 25,000 кадров/сек
Цветовое пространство : YUV
Субдискретизация насыщенности : 4:2:0
Битовая глубина : 8 бит
Тип развёртки : Прогрессивная
Метод сжатия : С потерями
Бит/(Пиксели*Кадры) : 0.270
Размер потока : 1,03 Гбайт (81%)
Библиотека кодирования : XviD 1.2.0SMP (UTC 2006-01-08)
Аудио #1
Идентификатор : 1
Формат : MPEG Audio
Версия формата : Version 1
Профиль формата : Layer 3
Режим : Joint stereo
Расширение режима : MS Stereo
Идентификатор кодека : 55
Идентификатор кодека/Подсказка : MP3
Продолжительность : 2 ч. 4 м.
Вид битрейта : Постоянный
Битрейт : 128 Кбит/сек
Каналы : 2 канала
Частота : 48,0 КГц
Метод сжатия : С потерями
Размер потока : 114 Мбайт (9%)
Выравнивание : Соединение по промежуткам
Продолжительность промежутка : 40 мс. (1,00 видеокадр)
Время предзагрузки промежутка : 504 мс.
Язык : Espanol
Аудио #2
Идентификатор : 2
Формат : MPEG Audio
Версия формата : Version 1
Профиль формата : Layer 3
Режим : Joint stereo
Расширение режима : MS Stereo
Идентификатор кодека : 55
Идентификатор кодека/Подсказка : MP3
Продолжительность : 2 ч. 4 м.
Вид битрейта : Постоянный
Битрейт : 128 Кбит/сек
Каналы : 2 канала
Частота : 48,0 КГц
Метод сжатия : С потерями
Размер потока : 114 Мбайт (9%)
Выравнивание : Соединение по промежуткам
Продолжительность промежутка : 40 мс. (1,00 видеокадр)
Время предзагрузки промежутка : 504 мс.
Язык : English

Скриншоты

Альфред Теннисон «Атака лёгкой кавалерии»

Долина в две мили редут недалече...
Услышав: "По коням, вперёд!",
Долиною смерти, под шквалом картечи,
Отважные скачут шестьсот.
Преддверием ада гремит канонада,
Под жерла орудий подставлены груди
Но мчатся и мчатся шестьсот.
Лишь сабельный лязг приказавшему вторил.
Приказа и бровью никто не оспорил.
Где честь, там отвага и долг.
Кто с доблестью дружен, тем довод не нужен.
По первому знаку на пушки в атаку
Уходит неистовый полк.
Метёт от редута свинцовой метелью,
Редеет бригада под русской шрапнелью,
Но первый рассеян оплот:
Казаки, солдаты, покинув куртины,
Бегут, обратив к неприятелю спины,
Они, а не эти шестьсот!
Теперь уж и фланги огнём полыхают.
Чугунные чудища не отдыхают
Из каждого хлещет жерла.
Никто не замешкался, не обернулся,
Никто из атаки живым не вернулся:
Смерть челюсти сыто свела.
Но вышли из левиафановой пасти
Шестьсот кавалеров возвышенной страсти
Затем, чтоб остаться в веках.
Утихло сраженье, долина дымится,
Но слава героев вовек не затмится,
Вовек не рассеется в прах.
перевод Юрия Колкера
Внимание! Торрент-файл перезалит 08.07.2017 без изменения содержимого раздачи в связи с просьбой администрации снять флаг "Приватная раздача". Скачавшим ранее просьба перекачать торрент-файл, перехешировать содержимое и присоединиться к раздаче.

If your ratio falls below 0.3, you will not be able to download Torrents! More about the rating.

[erzsebet.pl].t557.torrent
Torrent: Registered [ 2017-12-02 16:56 ] · 83E1ADEEDC0DAA053AE4A0B1E4401C47C8F49C2C

Download .torrent

Download

13 KB

Status: checked
Completed: 16 times
Size: 1.26 GB
terms.php
[Profile] [PM]
Display posts:    
Reply to topic

Current time is: 18-Jan 00:12

All times are UTC ± 0



You cannot post new topics in this forum
You cannot reply to topics in this forum
You cannot edit your posts in this forum
You cannot delete your posts in this forum
You cannot vote in polls in this forum
You cannot attach files in this forum
You can download files in this forum