История агента ФБР / The FBI Story (Мервин ЛеРой / Mervyn LeRoy) [1959, США, Триллер, драма, криминал, история, DVDRip] (Сароян) + Sub Rus

Reply to topic
DL-List and Torrent activity
Size:  1.37 GB   |    Registered:  3 years 1 month   |    Completed:  16 times

Seeder not seen: Never

 
   
 
 
Author Message

erzsebet.org ®

Longevity: 3 years 1 month

Posts: 47596

Post 02-Dec-2017 16:54

[Quote]

История агента ФБР / The FBI Story
Страна: США
Жанр: Триллер, драма, криминал, история
Год выпуска: 1959
Продолжительность: 02:29:14
Перевод: Субтитры (Сароян)
Субтитры: русские, английские
Оригинальная аудиодорожка: английский
Режиссер: Мервин ЛеРой / Mervyn LeRoy
В ролях: Джеймс Стюарт, Вера Майлз, Мюррэй Хэмилтон, Ларри Пеннелл, Ник Эдамс, Дайан Йоргенс, Джин Уиллз, Джойс Тейлор, Виктор Миллан, Парли Баэр
Описание: ФБР глазами одного из его агентов. Столкновения с гангстерами, ку-клукс-кланом, нацистами и шпионами времен холодной войны.
Сэмпл: http://sendfile.su/1347161
Качество видео: DVDRip
Формат видео: AVI
Видео: Video: 640x368 (1.74:1), 23.976 fps, XviD build 50 ~1193 kbps avg, 0.21 bit/pixel
Аудио: Audio: 48 kHz, MPEG Layer 3, 2 ch, ~104.40 kbps avg
Формат субтитров: softsub (SRT)

MediaInfo

Общее
Полное имя : D:\Торрент\The FBI Story [James Stewart] (1959) DVDRip Oldies\The FBI Story [James Stewart] (1959) DVDRip Oldies.avi
Формат : AVI
Формат/Информация : Audio Video Interleave
Размер файла : 1.37 GiB
Продолжительность : 2 h 29 min
Режим общего битрейта : Variable
Общий поток : 1 312 kb/s
Программа кодирования : VirtualDubMod 1.5.4.1 (build 2178/release)
Библиотека кодирования : VirtualDubMod build 2178/release
Видео
Идентификатор : 0
Формат : MPEG-4 Visual
Профиль формата : Advanced [email protected]
Параметр BVOP формата : 1
Параметр QPel формата : No
Параметр GMC формата : No warppoints
Параметр матрицы формата : Custom
Идентификатор кодека : XVID
Идентификатор кодека/Подсказка : XviD
Продолжительность : 2 h 29 min
Битрейт : 1 195 kb/s
Ширина : 640 pixels
Высота : 368 pixels
Соотношение сторон : 1.739
Частота кадров : 23.976 (24000/1001) FPS
Цветовое пространство : YUV
Субдискретизация насыщенности : 4:2:0
Битовая глубина : 8 bits
Тип развёртки : Progressive
Метод сжатия : Lossy
Бит/(Пиксели*Кадры) : 0.212
Размер потока : 1.25 GiB (91%)
Библиотека кодирования : XviD 1.2.1 (UTC 2008-12-04)
Аудио
Идентификатор : 1
Формат : MPEG Audio
Версия формата : Version 1
Профиль формата : Layer 3
Режим : Joint stereo
Расширение режима : MS Stereo
Идентификатор кодека : 55
Идентификатор кодека/Подсказка : MP3
Продолжительность : 2 h 29 min
Вид битрейта : Variable
Битрейт : 104 kb/s
Каналы : 2 channels
Частота : 48.0 kHz
Метод сжатия : Lossy
Размер потока : 111 MiB (8%)
Выравнивание : Aligned on interleaves
Продолжительность промежутка : 24 ms (0.58 video frame)
Время предзагрузки промежутка : 470 ms
Язык : English

Скриншот c названием фильма

Скриншоты






Пример субтитров

1
00:00:27,500 --> 00:00:28,990
Рейс №21.
2
00:00:29,169 --> 00:00:34,903
У 12-го выхода продолжается посадка на
рейс №21, вылетающий в 6.15.
3
00:00:36,209 --> 00:00:39,872
Словарь Уэбстера характеризует
убийство...
4
00:00:40,046 --> 00:00:45,349
...как незаконное лишение жизни
другим человеком.
5
00:00:45,953 --> 00:00:51,289
Ноябрьским вечером 1955 года это
определение устарело.
6
00:00:52,793 --> 00:00:55,762
Было задумано массовое убийство.
7
00:00:55,931 --> 00:00:58,729
Орудие убийства было спрятано
в потрепанном чемодане...
8
00:00:58,900 --> 00:01:00,491
...в аэропорту Среднего Запада.
9
00:01:00,668 --> 00:01:03,194
Плата за перевес составит 13 долларов.
10
00:01:03,371 --> 00:01:06,135
Бог мой, я не знала, что он такой
тяжелый.
11
00:01:06,675 --> 00:01:11,135
Лишь один человек во всем мире знал,
почему багаж женщины был таким тяжелым.
12
00:01:11,313 --> 00:01:13,247
Только один человек знал, что среди
вещей в ее чемодане...
13
00:01:13,415 --> 00:01:16,612
...была спрятана бомба с часовым
механизмом.
14
00:01:17,319 --> 00:01:22,916
Он знал, поскольку был тем,
кто ее туда положил.
15
00:01:23,625 --> 00:01:25,855
Он также знал, что чемодан
отправят...
16
00:01:26,028 --> 00:01:28,621
...в грузовой отсек самолета.
17
00:01:28,931 --> 00:01:32,128
Согласно документам, в самолете
находились 4 члена экипажа...
18
00:01:32,300 --> 00:01:34,895
...и 45 пассажиров.
19
00:01:37,773 --> 00:01:40,037
- Держите, миссис Кинг.
- Спасибо.
20
00:01:43,313 --> 00:01:45,212
- Распишись вот тут, мама.
- Страхование жизни?
21
00:01:45,382 --> 00:01:46,678
Да, я суеверный.

If your ratio falls below 0.3, you will not be able to download Torrents! More about the rating.

[erzsebet.pl].t558.torrent
Torrent: Registered [ 2017-12-02 16:56 ] · A26E57ABA08BCA30B00E84BB0DEFD4FE16913D35

Download .torrent

Download

14 KB

Status: checked
Completed: 16 times
Size: 1.37 GB
terms.php
[Profile] [PM]
Display posts:    
Reply to topic

Current time is: 20-Jan 07:33

All times are UTC ± 0



You cannot post new topics in this forum
You cannot reply to topics in this forum
You cannot edit your posts in this forum
You cannot delete your posts in this forum
You cannot vote in polls in this forum
You cannot attach files in this forum
You can download files in this forum