Благодарю тебя, глупая / I Thank a Fool (Роберт Стивенс / Robert Stevens) [1962, Великобритания, драма, DVDRip] VO + Original Eng

Reply to topic
DL-List and Torrent activity
Size:  1.59 GB   |    Registered:  3 years 1 month   |    Completed:  16 times

Seeder not seen: Never

 
   
 
 
Author Message

erzsebet.org ®

Longevity: 3 years 1 month

Posts: 47596

Post 02-Dec-2017 16:54

[Quote]

Благодарю тебя, глупая / I Thank a FoolПроект посвящен 100-летию Сьюзен Хэйуорд(30 июня 1917 - 14 марта 1975) Страна: Великобритания
Студия: De Grunwald Productions, Metro-Goldwyn-Mayer British Studios Ltd.
Жанр: драма
Год выпуска: 1962
Продолжительность: 01:40:03
Перевод: Одноголосый закадровый - Юрий Медведев
Субтитры: нет
Оригинальная аудиодорожка: английский
Режиссер: Роберт Стивенс / Robert Stevens
Композитор: Рон Гудвин / Ron Goodwin
В ролях: Сьюзен Хэйуорд / Susan Hayward ... Christine Allison
Питер Финч / Peter Finch ... Stephen Dane
Дайан Чиленто / Diane Cilento ... Liane Dane
Сирил Кьюсак / Cyril Cusack ... Captain Ferris
Кирон Мур / Kieron Moore ... Roscoe
Ричард Уоттис / Richard Wattis ... Ebblington
Эфин Сейлер / Athene Seyler ... Aunt Heather
Мириам Карлин / Miriam Karlin ... Woman in the Black Maria
Лоуренс Нэйсмит / Laurence Naismith ... O'Grady
Дж.Дж. Дэвлин / J.G. Devlin ... Coroner
Клайв Мортон / Clive Morton ... Judge
Ричард Лич / Richard Leech ... Irish Doctor
Бренда Де Банзи / Brenda De Banzie ... Nurse Drew
Эдвин Эппс / Edwin Apps ... Junior Counsel

Джоан Хиксон / Joan Hickson ... Landlady
Питер Вон / Peter Vaughan ... Police Inspector
Описание: Экранизация романа Одри Эрскин-Линдоп.
Доктор Кристина Эллисон осуждена за непредумышленное убийство ее неизлечимо больного любовника. После двух лет пребывания в тюрьме она не может найти работу. Помощь приходит с неожиданной стороны. К ней обращается Стивен Дейн - адвокат, который на процессе представлял сторону обвинения. Он нанимает Кристину, чтобы она присматривала за его душевнобольной женой Лианой. И хотя у Кристины возникают подозрения по поводу истинных причин такой просьбы со стороны Дейна, она, будучи в безвыходном положении, принимает предложение...--Фильмография Сьюзен Хэйуорд--Фильмография Питера Финча--БОЛЬШОЕ СПАСИБО:
Работа со звуком и реавторинг DVD - AlekceyR76
Перевод и озвучивание фильма - Юрий Медведев
Также Большое Спасибо всем, кто принял участие в появлении перевода и озвучки к этому фильму:
Lafajet, Магда, jasenka, елена 22, yanaelisa, old76, cementit, voostorg, Ugo927, surzhoks, борюська, HippopotamusIV, sindzi, Lars134, GalaUkr, spartakeynoir, Patsy+
--Сэмпл: https://www.sendspace.com/file/k6xes1
Качество видео: DVDRip
Формат видео: AVI
Видео: XviD, 720x304 (2.37:1), 23.976 fps, 1882 Kbps
Аудио 1: AC3, 48.0 KHz, 2 ch., 192 Kbps (русский одноголосый закадровый перевод) - Юрий Медведев
Аудио 2: AC3, 48.0 KHz, 2 ch., 192 Kbps (оригинальная английская звуковая дорожка, лежит отдельно)
Как подключить альтернативную (внешнюю) звуковую дорожку к видео при просмотре?
Как добавить отдельно лежащую аудиодорожку в .avi - файл? (см. "Программы для работы с контейнерами" - > "VirtualDub" или "AVI-Mux")

MediaInfo

AVI-файл:
Общее
Полное имя : I:\раздачи\I Thank a Fool 1962\I Thank a Fool.avi
Формат : AVI
Формат/Информация : Audio Video Interleave
Размер файла : 1,46 Гбайт
Продолжительность : 1 ч. 40 м.
Общий поток : 2083 Кбит/сек
Программа кодирования : VirtualDubMod 1.5.10.3 | www.virtualdub-fr.org || (build 2550/release)
Библиотека кодирования : VirtualDubMod build 2550/release
Видео
Идентификатор : 0
Формат : MPEG-4 Visual
Профиль формата : Advanced [email protected]
Параметр BVOP формата : 2
Параметр QPel формата : Нет
Параметр GMC формата : Без точки перехода
Параметр матрицы формата : Default (H.263)
Идентификатор кодека : DX50
Идентификатор кодека/Подсказка : DivX 5
Продолжительность : 1 ч. 40 м.
Битрейт : 1882 Кбит/сек
Ширина : 720 пикселей
Высота : 304 пикселя
Соотношение сторон : 2,35:1
Частота кадров : 23,976 (24000/1001) кадра/сек
Цветовое пространство : YUV
Субдискретизация насыщенности : 4:2:0
Битовая глубина : 8 бит
Тип развёртки : Прогрессивная
Метод сжатия : С потерями
Бит/(Пиксели*Кадры) : 0.359
Размер потока : 1,32 Гбайт (90%)
Библиотека кодирования : XviD 73
Аудио
Идентификатор : 1
Формат : AC-3
Формат/Информация : Audio Coding 3
Параметр Endianness формата : Big
Идентификатор кодека : 2000
Продолжительность : 1 ч. 40 м.
Вид битрейта : Постоянный
Битрейт : 192 Кбит/сек
Каналы : 2 канала
Расположение каналов : Front: L R
Частота : 48,0 КГц
Частота кадров : 31,250 кадров/сек (1536 spf)
Битовая глубина : 16 бит
Метод сжатия : С потерями
Размер потока : 137 Мбайт (9%)
Выравнивание : Разделение по промежуткам
Продолжительность промежутка : 42 мс. (1,00 видеокадр)
Время предзагрузки промежутка : 500 мс.
ServiceKind/String : Complete Main
английская оригинальная звуковая дорожка, лежит отдельно:
Общее
Полное имя : I:\раздачи\I Thank a Fool 1962\I Thank a Fool.ENG.ac3
Формат : AC-3
Формат/Информация : Audio Coding 3
Размер файла : 137 Мбайт
Продолжительность : 1 ч. 40 м.
Режим общего битрейта : Постоянный
Общий поток : 192 Кбит/сек
Аудио
Формат : AC-3
Формат/Информация : Audio Coding 3
Параметр Endianness формата : Big
Продолжительность : 1 ч. 40 м.
Вид битрейта : Постоянный
Битрейт : 192 Кбит/сек
Каналы : 2 канала
Расположение каналов : Front: L R
Частота : 48,0 КГц
Частота кадров : 31,250 кадров/сек (1536 spf)
Битовая глубина : 16 бит
Метод сжатия : С потерями
Размер потока : 137 Мбайт (100%)
ServiceKind/String : Complete Main

If your ratio falls below 0.3, you will not be able to download Torrents! More about the rating.

[erzsebet.pl].t559.torrent
Torrent: Registered [ 2017-12-02 16:56 ] · F3A8240F19CCD55795F9F4A53212BC1A3AC1C05A

Download .torrent

Download

16 KB

Status: checked
Completed: 16 times
Size: 1.59 GB
terms.php
[Profile] [PM]
Display posts:    
Reply to topic

Current time is: 28-Jan 08:48

All times are UTC ± 0



You cannot post new topics in this forum
You cannot reply to topics in this forum
You cannot edit your posts in this forum
You cannot delete your posts in this forum
You cannot vote in polls in this forum
You cannot attach files in this forum
You can download files in this forum