Внутреннее расследование / Internal Affairs (Майк Фиггис / Mike Figgis) [1990, США, триллер, драма, криминал, VHSRip] [Full Screen] AVO (Андрей Гаврилов)

Reply to topic
DL-List and Torrent activity
Size:  1.47 GB   |    Registered:  3 years 1 month   |    Completed:  16 times

Seeder not seen: Never

 
   
 
 
Author Message

erzsebet.org ®

Longevity: 3 years 1 month

Posts: 47596

Post 02-Dec-2017 16:54

[Quote]

Внутреннее расследование / Internal Affairs
[Full Screen]

«Trust him... he's a cop»

Страна: США
Жанр: триллер, драма, криминал
Год выпуска: 1990
Продолжительность: 01:54:13
Перевод: Авторский (одноголосый закадровый) Андрей Гаврилов
Субтитры: нет
Режиссер: Майк Фиггис / Mike Figgis
В ролях: Ричард Гир, Энди Гарсиа, Лори Меткалф, Нэнси Трэвис, Ричард Брэдфорд, Уильям Болдуин, Майкл Бич, Кэтрин Боровиц, Фэй Грант, Джон Капелос
Описание: Когда любой из нас попадает в беду, страж правопорядка, являющийся на помощь, подобен ангелу. В минуты несчастья он - единственный спаситель и защитник
Вы доверяете ему себя всецело и безоглядно. И ни у кого, ни при каких обстоятельствах не возникнет подозрения, что за благородной внешностью, под аккуратно отутюженным полицейским кителем может скрываться дьявол...
Доп. информация: Оцифровка VHS (личный архив) и получение VHSRip videolover2010
Эксклюзив для erzsebet.org. При размещении данного релиза на других сайтах ссылка на автора alenavova обязательна.
Релиз
Сэмпл: https://yadi.sk/i/5a68Q-593Q4YLt
Качество видео: VHSRip
Формат видео: AVI
Видео: 704x528 (1.33:1), 25 fps, XviD build 73 ~1708 kbps avg, 0.18 bit/pixel
Аудио: 48 kHz, AC3 Dolby Digital, 2/0 (L,R) ch, ~192 kbps

MediaInfo

Внутреннее расследование - Internal Affairs (by videolover2010).avi
Format : AVI
Format/Info : Audio Video Interleave
File size : 1.47 GiB
Duration : 1 h 49 min
Overall bit rate : 1 910 kb/s
Movie name : Внутреннее расследование - Internal Affairs (by videolover2010)
Director : by videolover2010
Writing application : VirtualDubMod 1.5.10.3 | www.virtualdub-fr.org || (build 2550/release)
Copyright : Edich2
Comment : erzsebet.org
Video
ID : 0
Format : MPEG-4 Visual
Format profile : Advanced [email protected]
Format settings, BVOP : 2
Format settings, QPel : No
Format settings, GMC : No warppoints
Format settings, Matrix : Custom
Codec ID : XVID
Codec ID/Hint : XviD
Duration : 1 h 49 min
Bit rate : 1 708 kb/s
Width : 704 pixels
Height : 528 pixels
Display aspect ratio : 4:3
Frame rate : 25.000 FPS
Color space : YUV
Chroma subsampling : 4:2:0
Bit depth : 8 bits
Scan type : Progressive
Compression mode : Lossy
Bits/(Pixel*Frame) : 0.184
Stream size : 1.31 GiB (89%)
Writing library : XviD 73
Audio
ID : 1
Format : AC-3
Format/Info : Audio Coding 3
Format settings, Endianness : Big
Codec ID : 2000
Duration : 1 h 49 min
Bit rate mode : Constant
Bit rate : 192 kb/s
Channel(s) : 2 channels
Channel positions : Front: L R
Sampling rate : 48.0 kHz
Frame rate : 31.250 FPS (1536 spf)
Bit depth : 16 bits
Compression mode : Lossy
Stream size : 151 MiB (10%)
Alignment : Split accross interleaves
Interleave, duration : 40 ms (1.00 video frame)
Interleave, preload duratio : 500 ms
Service kind : Complete Main

Скриншоты


ТОРРЕНТ ПЕРЕЗАЛИТ
ПОЛНАЯ ЗАМЕНА VHS РИПА

http://screenshotcomparison.com/comparison/125234/picture:1

If your ratio falls below 0.3, you will not be able to download Torrents! More about the rating.

[erzsebet.pl].t561.torrent
Torrent: Registered [ 2017-12-02 16:56 ] · E9D7F263CB0ADC488B1B2C09C533118153672A91

Download .torrent

Download

15 KB

Status: checked
Completed: 16 times
Size: 1.47 GB
terms.php
[Profile] [PM]
Display posts:    
Reply to topic

Current time is: 18-Jan 01:23

All times are UTC ± 0



You cannot post new topics in this forum
You cannot reply to topics in this forum
You cannot edit your posts in this forum
You cannot delete your posts in this forum
You cannot vote in polls in this forum
You cannot attach files in this forum
You can download files in this forum